+3

Оставленные / The Holdovers (2023) WEB-DL 1080p от селезень | P

Информация о фильме
Название: Оставленные
Оригинальное название: The Holdovers
Год выпуска: 2023
Жанр: Комедия, драма
Режиссер: Александр Пэйн / Alexander Payne
В ролях: Пол Джаматти, Доминик Сесса, Давайн Джой Рэндольф, Кэрри Престон, Брейди Хепнер, Йен Долли, Джим Каплан, Майкл Провост, Эндрю Гарман, Нахим Гарсиа, Стивен Торн, Джиллиан Вигмэн, Тейт Донован, Дарби Лили Ли-Стэк, Кейли Калиси

О фильме:
Декабрь 1970 года. Ученики академии Бартон, престижной закрытой школы для мальчиков, разъезжаются на рождественские каникулы, но несколько неудачников, родители которых не могут или не хотят их забирать, вынуждены остаться на кампусе. Присматривать за ребятами назначен ненавистный учитель истории мистер Ханэм — принципиальный приверженец строгих педагогических методов, и повариха Мэри, скорбящая по погибшему во Вьетнаме сыну.

Выпущено: США / CAA Media Finance, Miramax Films
Продолжительность: 02:13:25
Перевод: Профессиональный (многоголосый, закадровый) | Jaskier 18 +
Субтитры: Русские (Full -Director's Card), Английские (Full, SDH)

Файл
Качество: WEB-DL 1080p | MA
Формат: MKV
Видео: 1920x1080, 23.976 fps, MPEG-4 AVC, ~8000 Kbps
Аудио 1: AC3, 2 ch, ~192 kbps - | Русский | Оставленные / The Holdovers (2023) WEB-DL 1080p от селезень | P
Аудио 2: E-AC3, 6 ch, ~640 kbps - | Английский |
Формат субтитров: softsub (SRT)

Авторизуйтесь для получения доступа к скачиванию

Нет аккаунта? Регистрация открыта и займёт меньше минуты

Вход Регистрация

General
Unique ID : 246885196899529093546537866906991708890 (0xB9BC5BFE96DB53134B29365E7415CADA)
Complete name : H:VideoHThe.Holdovers.2023.MA.WEB-DL.1080p.seleZen.mkv
Format : Matroska
Format version : Version 4
File size : 8.22 GiB
Duration : 2 h 13 min
Overall bit rate : 8 818 kb/s
Frame rate : 23.976 FPS
Movie name : The Holdovers 2023 from seleZen
Encoded date : 2023-12-04 17:38:38 UTC
Writing application : mkvmerge v80.0 ('Roundabout') 64-bit
Writing library : libebml v1.4.4 + libmatroska v1.7.1

Video
ID : 1
Format : AVC
Format/Info : Advanced Video Codec
Format profile : High@L4
Format settings : CABAC / 4 Ref Frames
Format settings, CABAC : Yes
Format settings, Reference : 4 frames
Codec ID : V_MPEG4/ISO/AVC
Duration : 2 h 13 min
Bit rate : 8 000 kb/s
Width : 1 920 pixels
Height : 1 080 pixels
Display aspect ratio : 16:9
Frame rate mode : Constant
Frame rate : 23.976 (24000/1001) FPS
Color space : YUV
Chroma subsampling : 4:2:0
Bit depth : 8 bits
Scan type : Progressive
Bits/(Pixel*Frame) : 0.161
Stream size : 7.44 GiB (91%)
Writing library : x264 core 164 r3094 bfc87b7
Encoding settings : cabac=1 / ref=4 / deblock=1:-1:-1 / analyse=0x3:0x133 / me=umh / subme=9 / psy=1 / psy_rd=1.00:0.15 / mixed_ref=1 / me_range=16 / chroma_me=1 / trellis=2 / 8x8dct=1 / cqm=0 / deadzone=21,11 / fast_pskip=1 / chroma_qp_offset=-3 / threads=12 / lookahead_threads=1 / sliced_threads=0 / nr=0 / decimate=1 / interlaced=0 / bluray_compat=0 / stitchable=1 / constrained_intra=0 / bframes=3 / b_pyramid=2 / b_adapt=2 / b_bias=0 / direct=3 / weightb=1 / open_gop=0 / weightp=2 / keyint=48 / keyint_min=4 / scenecut=0 / intra_refresh=0 / rc_lookahead=48 / rc=abr / mbtree=1 / bitrate=8000 / ratetol=1.0 / qcomp=0.60 / qpmin=0 / qpmax=69 / qpstep=4 / vbv_maxrate=8800 / vbv_bufsize=16000 / nal_hrd=none / filler=0 / ip_ratio=1.40 / aq=1:1.00
Language : English
Default : Yes
Forced : No
Color range : Limited
Color primaries : BT.709
Transfer characteristics : BT.709
Matrix coefficients : BT.709

Audio #1
ID : 2
Format : AC-3
Format/Info : Audio Coding 3
Commercial name : Dolby Digital
Codec ID : A_AC3
Duration : 2 h 13 min
Bit rate mode : Constant
Bit rate : 192 kb/s
Channel(s) : 2 channels
Channel layout : L R
Sampling rate : 48.0 kHz
Frame rate : 31.250 FPS (1536 SPF)
Compression mode : Lossy
Stream size : 183 MiB (2%)
Title : MVO_Jaskier
Language : Russian
Service kind : Complete Main
Default : Yes
Forced : No

Audio #2
ID : 3
Format : E-AC-3
Format/Info : Enhanced AC-3
Commercial name : Dolby Digital Plus
Codec ID : A_EAC3
Duration : 2 h 13 min
Bit rate mode : Constant
Bit rate : 640 kb/s
Channel(s) : 6 channels
Channel layout : L R C LFE Ls Rs
Sampling rate : 48.0 kHz
Frame rate : 31.250 FPS (1536 SPF)
Compression mode : Lossy
Delay relative to video : 12 ms
Stream size : 611 MiB (7%)
Title : Original
Language : English
Service kind : Complete Main
Default : No
Forced : No

Text #1
ID : 4
Format : UTF-8
Codec ID : S_TEXT/UTF8
Codec ID/Info : UTF-8 Plain Text
Duration : 2 h 8 min
Bit rate : 95 b/s
Frame rate : 0.246 FPS
Count of elements : 1895
Stream size : 90.1 KiB (0%)
Title : Full
Language : Russian
Default : No
Forced : No

Text #2
ID : 5
Format : UTF-8
Codec ID : S_TEXT/UTF8
Codec ID/Info : UTF-8 Plain Text
Duration : 2 h 10 min
Bit rate : 68 b/s
Frame rate : 0.287 FPS
Count of elements : 2245
Stream size : 65.9 KiB (0%)
Title : Full
Language : English
Default : No
Forced : No

Text #3
ID : 6
Format : UTF-8
Codec ID : S_TEXT/UTF8
Codec ID/Info : UTF-8 Plain Text
Duration : 2 h 12 min
Bit rate : 75 b/s
Frame rate : 0.313 FPS
Count of elements : 2489
Stream size : 73.3 KiB (0%)
Title : SDH
Language : English
Default : No
Forced : No

Другие фильмы
У данной публикации пока нет комментариев.
Будь первым, оставь своё мнение в комментариях!
Информация
Посетители, находящиеся в группе Гости, не могут оставлять комментарии к данной публикации.
Самый популярный релиз недели
Донаты
Мы в соц. сетях / RSS

Лучшие релизы месяца
Лучшие SD недели
Лучшие 720p недели
Лучшие 1080p недели
Лучшие 4K недели
Вы недавно смотрели
Реклама
Последние комментарии
...

zik77

2 марта 2024 07:26

...

korelov

23 февраля 2024 14:35

...

Desol

21 февраля 2024 00:28

...

diabloq

20 февраля 2024 14:17

...

slightlymad

17 февраля 2024 21:01

Реклама