+20

Убийцы цветочной луны / Killers of the Flower Moon (2023) BDRip-AVC от DoMiNo & селезень | D

Информация о фильме
Название: Убийцы цветочной луны
Оригинальное название: Killers of the Flower Moon
Год выпуска: 2023
Жанр: триллер, драма, криминал, детектив, вестерн, история
Режиссер: Мартин Скорсезе
Продюсер: Дэн Фридкин, Дэниэл Лупи, Мартин Скорсезе
Актеры: Леонардо ДиКаприо, Роберт Де Ниро, Лили Гладстоун, Джесси Племонс, Танту Кардинал, Джон Литгоу, Брендан Фрейзер, Кара Джейд, Майерс Дженей, Коллинз Jillian Dion

Описание:
Вскоре после Первой мировой Эрнест Беркхарт, отслуживший во Франции поваром, приезжает искать удачи в Оклахому, где находится крупная резервация индейцев племени осейдж. В тех краях живет его дядя Уильям Хэйл, который носит прозвище Король — он землевладелец, скотопромышленник, друг индейцев и большой человек. Король убеждает Эрнеста посвататься к Молли Кайл, молодой женщине из зажиточной индейской семьи. Идея состоит в том, чтобы земельные права этой семьи со временем перешли к Беркхарту (читай к Хэйлу), а для этого всего лишь должны умереть мама Молли, её сёстры и она сама.

Производство: США / Appian Way, Apple Studios, Apple TV, Imperative Entertainment, Sikelia Productions
Продолжительность: 03:25:47
Перевод: Дублированный | Невафильм (Apple TV+)
Субтитры: Русские (Forced, full, SDH), английские

Файл
Формат: Matroska
Качество: BDRip-AVC
Видео: 1024x428 at 24.000 fps, [email protected], ~1417 kbps
Аудио: AC3, 6 ch, ~448 kbps - | Русский | Убийцы цветочной луны / Killers of the Flower Moon (2023) BDRip-AVC от DoMiNo & селезень | D
Формат субтитров: softsub (SRT)

Авторизуйтесь для получения доступа к скачиванию

Нет аккаунта? Регистрация открыта и займёт меньше минуты

Вход Регистрация

x264 [info]: frame I: 2174 Avg QP: 13.93 size: 50112
x264 [info]: frame P: 57245 Avg QP: 15.66 size: 17728
x264 [info]: frame B: 236919 Avg QP: 17.75 size: 4487

General
Unique ID: 247704654736379182684459060788108953200 (0xBA5A2E629AD25C3A0B2B4F52257B8670)
Complete name: R: Killers.Of.The.Flower.Moon.2023.DUB.BDRip.x264.seleZen.mkv
Format: Matroska
Format version: Version 4
File size: 2.68 GiB
Duration: 3 h 25 min
Overall bit rate: 1 867 kb/s
Frame rate: 24.000 FPS
Movie name: Killers.Of.The.Flower.Moon.2023.DUB.BDRip.x264.seleZen
Encoded date: 20.01.2024 12:34:00 UTC
Writing application: mkvmerge v82.0 ('I’m The President') 64-bit
Writing library: libebml v1.4.5 + libmatroska v1.7.1
Cover: Yes
Attachments: cover.jpg / small_cover.jpg

Video
ID: 1
Format: AVC
Format/Info: Advanced Video Codec
Format profile: [email protected]
Format settings: CABAC / 14 Ref Frames
Format settings, CABAC: Yes
Format settings, Reference: 14 frames
Codec ID: V_MPEG4/ISO/AVC
Duration: 3 h 25 min
Bit rate: 1 417 kb/s
Width: 1 024 pixels
Height: 428 pixels
Display aspect ratio: 2.40:1
Frame rate mode: Constant
Frame rate: 24.000 FPS
Color space: YUV
Chroma subsampling: 4:2:0
Bit depth: 8 bits
Scan type: Progressive
Bits/(Pixel*Frame): 0.135
Stream size: 2.04 GiB (76%)
Title: -=DoMiNo=-
Writing library: x264 core 164 r3173 -DoMiNo
Encoding settings: cabac=1 / ref=14 / deblock=1:-2:-2 / analyse=0×3:0×133 / me=umh / subme=10 / psy=1 / psy_rd=1.05:0.03 / mixed_ref=1 / me_range=32 / chroma_me=1 / trellis=2 / 8×8dct=1 / cqm=0 / deadzone=21,11 / fast_pskip=0 / chroma_qp_offset=-3 / threads=17 / lookahead_threads=3 / sliced_threads=0 / nr=0 / decimate=0 / interlaced=0 / bluray_compat=0 / constrained_intra=0 / bframes=12 / b_pyramid=2 / b_adapt=2 / b_bias=0 / direct=1 / weightb=1 / open_gop=0 / weightp=2 / keyint=250 / keyint_min=24 / scenecut=40 / intra_refresh=0 / rc_lookahead=60 / rc=crf / mbtree=0 / crf=17.5 / qcomp=0.60 / qpmin=0 / qpmax=69 / qpstep=4 / vbv_maxrate=50000 / vbv_bufsize=62500 / crf_max=0.0 / nal_hrd=none / filler=0 / ip_ratio=1.27 / pb_ratio=1.30 / aq=3:0.80
Language: English
Default: Yes
Forced: No

Audio
ID: 2
Format: AC-3
Format/Info: Audio Coding 3
Commercial name: Dolby Digital
Codec ID: A_AC3
Duration: 3 h 25 min
Bit rate mode: Constant
Bit rate: 448 kb/s
Channel (s): 6 channels
Channel layout: L R C LFE Ls Rs
Sampling rate: 48.0 kHz
Frame rate: 31.250 FPS (1536 SPF)
Compression mode: Lossy
Stream size: 659 MiB (24%)
Title: Дублированный | Невафильм (Apple TV+)
Language: Russian
Service kind: Complete Main
Default: Yes
Forced: No

Text #1
ID: 3
Format: UTF-8
Codec ID: S_TEXT/UTF8
Codec ID/Info: UTF-8 Plain Text
Duration: 3 h 21 min
Bit rate: 2 b/s
Frame rate: 0.007 FPS
Count of elements: 89
Stream size: 3.66 KiB (0%)
Title: Forced
Language: Russian
Default: No
Forced: No

Text #2
ID: 4
Format: UTF-8
Codec ID: S_TEXT/UTF8
Codec ID/Info: UTF-8 Plain Text
Duration: 3 h 24 min
Bit rate: 82 b/s
Frame rate: 0.195 FPS
Count of elements: 2390
Stream size: 123 KiB (0%)
Title: Full
Language: Russian
Default: No
Forced: No

Text #3
ID: 5
Format: UTF-8
Codec ID: S_TEXT/UTF8
Codec ID/Info: UTF-8 Plain Text
Duration: 3 h 21 min
Bit rate: 99 b/s
Frame rate: 0.228 FPS
Count of elements: 2756
Stream size: 148 KiB (0%)
Title: SDH
Language: Russian
Default: No
Forced: No

Text #4
ID: 6
Format: UTF-8
Codec ID: S_TEXT/UTF8
Codec ID/Info: UTF-8 Plain Text
Duration: 3 h 15 min
Bit rate: 59 b/s
Frame rate: 0.208 FPS
Count of elements: 2448
Stream size: 86.0 KiB (0%)
Title: Full
Language: English
Default: No
Forced: No

Text #5
ID: 7
Format: UTF-8
Codec ID: S_TEXT/UTF8
Codec ID/Info: UTF-8 Plain Text
Duration: 3 h 17 min
Bit rate: 67 b/s
Frame rate: 0.237 FPS
Count of elements: 2801
Stream size: 98.0 KiB (0%)
Title: SDH
Language: English
Default: No
Forced: No

Menu
00:00:00.000: en: Глава 01
00:14:27.292: en: Глава 02
00:34:27.792: en: Глава 03
00:52:02.250: en: Глава 04
01:11:14.500: en: Глава 05
01:24:03.625: en: Глава 06
01:41:36.375: en: Глава 07
01:59:10.292: en: Глава 08
02:12:39.917: en: Глава 09
02:30:51.958: en: Глава 10
02:48:02.042: en: Глава 11
03:06:23.625: en: Глава 12

Другие фильмы
У данной публикации пока нет комментариев.
Будь первым, оставь своё мнение в комментариях!
Информация
Посетители, находящиеся в группе Гости, не могут оставлять комментарии к данной публикации.
Самый популярный релиз недели
Донаты
Мы в соц. сетях / RSS

Лучшие релизы месяца
Лучшие SD недели
Лучшие 720p недели
Лучшие 1080p недели
Лучшие 4K недели
Вы недавно смотрели
Реклама
Последние комментарии
...

zik77

2 марта 2024 07:26

...

korelov

23 февраля 2024 14:35

...

Desol

21 февраля 2024 00:28

...

diabloq

20 февраля 2024 14:17

...

slightlymad

17 февраля 2024 21:01

Реклама