+11

Убийцы цветочной луны / Killers of the Flower Moon (2023) UHD BDRemux 2160p от селезень | 4K | HDR | Dolby Vision Profile 8 | D

Информация о фильме
Название: Убийцы цветочной луны
Оригинальное название: Killers of the Flower Moon
Год выхода: 2023
Жанр: драма, мелодрама, криминал, детектив, вестерн, история
Режиссер: Мартин Скорсезе
В ролях: Леонардо ДиКаприо, Роберт Де Ниро, Лили Гладстоун, Джесси Племонс, Танту Кардинал, Джон Литгоу, Брендан Фрейзер, Кара Джейд Майерс, Дженей Коллинз, Джиллиан Дион

О фильме: Вскоре после Первой мировой Эрнест Беркхарт, отслуживший во Франции поваром, приезжает искать удачи в Оклахому, где находится крупная резервация индейцев племени осейдж. В тех краях живет его дядя Уильям Хэйл, который носит прозвище Король - он землевладелец, скотопромышленник, друг индейцев и большой человек. Король убеждает Эрнеста посвататься к Молли Кайл, молодой женщине из зажиточной индейской семьи. Идея состоит в том, чтобы земельные права этой семьи со временем перешли к Беркхарту (читай к Хэйлу), а для этого всего лишь должны умереть мама Молли, её сёстры и она сама.

Страна: США
Студия: Appian Way, Apple Studios, Apple TV, Imperative Entertainment, Sikelia Productions
Продолжительность: 03:25:47
Перевод: Дублированный | Невафильм (Apple TV+)

Качество: BDRemux 2160p
Видео: 3840x2160 at 24.000 fps, MPEG-H HEVC HDR Video, 41500 kbps
Аудио #01: 48 kHz, AC3, 5.1, 448 Kbps | Дублированный | Невафильм (Apple TV+) | RUS |Убийцы цветочной луны / Killers of the Flower Moon (2023) UHD BDRemux 2160p от селезень | 4K | HDR | Dolby Vision Profile 8 | D
Аудио #02: 48 kHz, DTS-HD MA, 5.1, 3591 Kbps | Оригинал | ENG |
Субтитры: Русские (Forced, full, SDH), английские

Убийцы цветочной луны / Killers of the Flower Moon (2023) UHD BDRemux 2160p от селезень | 4K | HDR | Dolby Vision Profile 8 | D

Авторизуйтесь для получения доступа к скачиванию

Нет аккаунта? Регистрация открыта и займёт меньше минуты

Вход Регистрация

General
Unique ID : 180372874290977816608955636561521114724 (0x87B28D4E3F7949A6B594AB2FA4577E64)
Complete name : H:\VideoH\Killers.Of.The.Flower.Moon.2023.BDREMUX.2160p.HDR.DVP8.seleZen.mkv
Format : Matroska
Format version : Version 4
File size : 65.4 GiB
Duration : 3 h 25 min
Overall bit rate mode : Variable
Overall bit rate : 45.5 Mb/s
Frame rate : 24.000 FPS
Movie name : Killers Of The Flower Moon 2023 from seleZen
Encoded date : 2024-01-20 20:45:45 UTC
Writing application : mkvmerge v80.0 ('Roundabout') 64-bit
Writing library : libebml v1.4.4 + libmatroska v1.7.1

Video
ID : 1
ID in the original source m : 4117 (0x1015)
Format : HEVC
Format/Info : High Efficiency Video Coding
Format profile : Main [email protected]@High
HDR format : Dolby Vision, Version 1.0, dvhe.08.06, BL+RPU, Blu-ray compatible / SMPTE ST 2086, HDR10 compatible
Codec ID : V_MPEGH/ISO/HEVC
Duration : 3 h 25 min
Bit rate : 41.5 Mb/s
Width : 3 840 pixels
Height : 2 160 pixels
Display aspect ratio : 16:9
Frame rate mode : Constant
Frame rate : 24.000 FPS
Color space : YUV
Chroma subsampling : 4:2:0 (Type 2)
Bit depth : 10 bits
Bits/(Pixel*Frame) : 0.208
Stream size : 59.6 GiB (91%)
Language : English
Default : No
Forced : No
Color range : Limited
Color primaries : BT.2020
Transfer characteristics : PQ
Matrix coefficients : BT.2020 non-constant
Mastering display color pri : Display P3
Mastering display luminance : min: 0.0001 cd/m2, max: 1000 cd/m2
Maximum Content Light Level : 1000 cd/m2
Maximum Frame-Average Light : 163 cd/m2
Original source medium : Blu-ray

Audio #1
ID : 2
Format : AC-3
Format/Info : Audio Coding 3
Commercial name : Dolby Digital
Codec ID : A_AC3
Duration : 3 h 25 min
Bit rate mode : Constant
Bit rate : 448 kb/s
Channel(s) : 6 channels
Channel layout : L R C LFE Ls Rs
Sampling rate : 48.0 kHz
Frame rate : 31.250 FPS (1536 SPF)
Compression mode : Lossy
Stream size : 659 MiB (1%)
Title : Dub
Language : Russian
Service kind : Complete Main
Default : Yes
Forced : No

Audio #2
ID : 3
Format : DTS XLL
Format/Info : Digital Theater Systems
Commercial name : DTS-HD Master Audio
Codec ID : A_DTS
Duration : 3 h 25 min
Bit rate mode : Variable
Bit rate : 3 591 kb/s
Channel(s) : 6 channels
Channel layout : C L R Ls Rs LFE
Sampling rate : 48.0 kHz
Frame rate : 93.750 FPS (512 SPF)
Bit depth : 24 bits
Compression mode : Lossless
Stream size : 5.16 GiB (8%)
Title : Original
Language : English
Default : No
Forced : No

Text #1
ID : 4
Format : UTF-8
Codec ID : S_TEXT/UTF8
Codec ID/Info : UTF-8 Plain Text
Duration : 3 h 21 min
Bit rate : 2 b/s
Frame rate : 0.007 FPS
Count of elements : 89
Stream size : 3.66 KiB (0%)
Title : Forced
Language : Russian
Default : Yes
Forced : No

Text #2
ID : 5
Format : UTF-8
Codec ID : S_TEXT/UTF8
Codec ID/Info : UTF-8 Plain Text
Duration : 3 h 24 min
Bit rate : 82 b/s
Frame rate : 0.195 FPS
Count of elements : 2390
Stream size : 123 KiB (0%)
Title : Full
Language : Russian
Default : No
Forced : No

Text #3
ID : 6
Format : UTF-8
Codec ID : S_TEXT/UTF8
Codec ID/Info : UTF-8 Plain Text
Duration : 3 h 21 min
Bit rate : 99 b/s
Frame rate : 0.228 FPS
Count of elements : 2756
Stream size : 148 KiB (0%)
Title : SDH
Language : Russian
Default : No
Forced : No

Text #4
ID : 7
Format : UTF-8
Codec ID : S_TEXT/UTF8
Codec ID/Info : UTF-8 Plain Text
Duration : 3 h 15 min
Bit rate : 59 b/s
Frame rate : 0.208 FPS
Count of elements : 2448
Stream size : 86.0 KiB (0%)
Title : Full
Language : English
Default : No
Forced : No

Text #5
ID : 8
Format : UTF-8
Codec ID : S_TEXT/UTF8
Codec ID/Info : UTF-8 Plain Text
Duration : 3 h 17 min
Bit rate : 67 b/s
Frame rate : 0.237 FPS
Count of elements : 2801
Stream size : 98.0 KiB (0%)
Title : SDH
Language : English
Default : No
Forced : No

Menu
00:00:00.000 : en:Глава 01
00:14:28.083 : en:Глава 02
00:34:28.167 : en:Глава 03
00:52:02.750 : en:Глава 04
01:11:14.667 : en:Глава 05
01:24:04.000 : en:Глава 06
01:41:36.875 : en:Глава 07
01:59:10.458 : en:Глава 08
02:12:39.917 : en:Глава 09
02:30:52.917 : en:Глава 10
02:48:02.667 : en:Глава 11
03:06:24.125 : en:Глава 12

Другие фильмы
У данной публикации пока нет комментариев.
Будь первым, оставь своё мнение в комментариях!
Информация
Посетители, находящиеся в группе Гости, не могут оставлять комментарии к данной публикации.
Самый популярный релиз недели
Донаты
Мы в соц. сетях / RSS

Лучшие релизы месяца
Лучшие SD недели
Лучшие 720p недели
Лучшие 1080p недели
Лучшие 4K недели
Вы недавно смотрели
Реклама
Последние комментарии
...

zik77

2 марта 2024 07:26

...

korelov

23 февраля 2024 14:35

...

Desol

21 февраля 2024 00:28

...

diabloq

20 февраля 2024 14:17

...

slightlymad

17 февраля 2024 21:01

Реклама