+5

Убийцы цветочной луны / Killers of the Flower Moon (2023) WEB-DLRip 1080p от селезень | D

Информация о фильме
Название: Убийцы цветочной луны
Оригинальное название: Killers of the Flower Moon
Год выхода: 2023
Жанр: драма, мелодрама, криминал, детектив, вестерн, история
Режиссер: Мартин Скорсезе
В ролях: Леонардо ДиКаприо, Роберт Де Ниро, Лили Гладстоун, Джесси Племонс, Танту Кардинал, Джон Литгоу, Брендан Фрейзер, Кара Джейд Майерс, Дженей Коллинз, Джиллиан Дион

О фильме: Вскоре после Первой мировой Эрнест Беркхарт, отслуживший во Франции поваром, приезжает искать удачи в Оклахому, где находится крупная резервация индейцев племени осейдж. В тех краях живет его дядя Уильям Хэйл, который носит прозвище Король - он землевладелец, скотопромышленник, друг индейцев и большой человек. Король убеждает Эрнеста посвататься к Молли Кайл, молодой женщине из зажиточной индейской семьи. Идея состоит в том, чтобы земельные права этой семьи со временем перешли к Беркхарту (читай к Хэйлу), а для этого всего лишь должны умереть мама Молли, её сёстры и она сама.

Страна: США
Студия: Appian Way, Apple Studios, Apple TV, Imperative Entertainment, Sikelia Productions
Продолжительность: 03:26:01
Перевод: Дублированный | Невафильм (Apple TV+)

Качество: WEB-DLRip 1080p | исх. Killers.Of.The.Flower.Moon.2023.REPACK.2160p.AMZN.WEB-DL.DDP5.1.Atmos.H.265-FLUX.mkv
Видео: MPEG-4 AVC, 1920x800, 7880 Kbit/s, 23.976 fps
Аудио #01: 48 kHz, AC3, 5.1, 448 Kbps | Дублированный | Невафильм (Apple TV+) | RUS |Убийцы цветочной луны / Killers of the Flower Moon (2023) WEB-DLRip 1080p от селезень | D
Аудио #02: 48 kHz, E-AC3+Atmos, 5.1, 768 Kbps | Дублированный | Невафильм (Apple TV+) | RUS |
Аудио #03: 48 kHz, E-AC3+Atmos, 5.1, 768 Kbps | Оригинал | ENG |
Субтитры: Русские (Forced, full, SDH), украинские (Full), английские

Убийцы цветочной луны / Killers of the Flower Moon (2023) WEB-DLRip 1080p от селезень | D

Авторизуйтесь для получения доступа к скачиванию

Нет аккаунта? Регистрация открыта и займёт меньше минуты

Вход Регистрация

General
Unique ID : 89695685162331353017755788727881873979 (0x437AC2B643E4C39F28EF07EB4DE8BA3B)
Complete name : H:\VideoH\Killers.of.the.Flower.Moon.2023.WEB-DLRip.1080p.seleZen.mkv
Format : Matroska
Format version : Version 4
File size : 14.3 GiB
Duration : 3 h 28 min
Overall bit rate : 9 847 kb/s
Frame rate : 23.976 FPS
Movie name : Killers of the Flower Moon 2023 from seleZen
Encoded date : 2023-12-05 12:40:55 UTC
Writing application : mkvmerge v80.0 ('Roundabout') 64-bit
Writing library : libebml v1.4.4 + libmatroska v1.7.1

Video
ID : 1
Format : AVC
Format/Info : Advanced Video Codec
Format profile : [email protected]
Format settings : CABAC / 5 Ref Frames
Format settings, CABAC : Yes
Format settings, Reference : 5 frames
Codec ID : V_MPEG4/ISO/AVC
Duration : 3 h 28 min
Bit rate : 7 880 kb/s
Width : 1 920 pixels
Height : 800 pixels
Display aspect ratio : 2.40:1
Frame rate mode : Constant
Frame rate : 23.976 (24000/1001) FPS
Color space : YUV
Chroma subsampling : 4:2:0
Bit depth : 8 bits
Scan type : Progressive
Bits/(Pixel*Frame) : 0.214
Stream size : 11.5 GiB (80%)
Writing library : x264 core 164 r3164 seleZen
Encoding settings : cabac=1 / ref=5 / deblock=1:-2:-2 / analyse=0x3:0x133 / me=umh / subme=10 / psy=1 / psy_rd=1.01:0.02 / mixed_ref=1 / me_range=32 / chroma_me=1 / trellis=2 / 8x8dct=1 / cqm=0 / deadzone=21,11 / fast_pskip=0 / chroma_qp_offset=-3 / threads=25 / lookahead_threads=4 / sliced_threads=0 / nr=0 / decimate=0 / interlaced=0 / bluray_compat=0 / constrained_intra=0 / bframes=8 / b_pyramid=2 / b_adapt=2 / b_bias=0 / direct=1 / weightb=1 / open_gop=0 / weightp=2 / keyint=240 / keyint_min=23 / scenecut=40 / intra_refresh=0 / rc_lookahead=60 / rc=crf / mbtree=0 / crf=19.4 / qcomp=0.60 / qpmin=0 / qpmax=51 / qpstep=4 / vbv_maxrate=50000 / vbv_bufsize=62500 / crf_max=0.0 / nal_hrd=none / filler=0 / ip_ratio=1.40 / pb_ratio=1.30 / aq=3:0.80
Language : English
Default : Yes
Forced : No

Audio #1
ID : 2
Format : AC-3
Format/Info : Audio Coding 3
Commercial name : Dolby Digital
Codec ID : A_AC3
Duration : 3 h 26 min
Bit rate mode : Constant
Bit rate : 448 kb/s
Channel(s) : 6 channels
Channel layout : L R C LFE Ls Rs
Sampling rate : 48.0 kHz
Frame rate : 31.250 FPS (1536 SPF)
Compression mode : Lossy
Stream size : 660 MiB (5%)
Title : Dub [Nevafilm]
Language : Russian
Service kind : Complete Main
Default : Yes
Forced : No

Audio #2
ID : 3
Format : E-AC-3 JOC
Format/Info : Enhanced AC-3 with Joint Object Coding
Commercial name : Dolby Digital Plus with Dolby Atmos
Codec ID : A_EAC3
Duration : 3 h 26 min
Bit rate mode : Constant
Bit rate : 768 kb/s
Channel(s) : 6 channels
Channel layout : L R C LFE Ls Rs
Sampling rate : 48.0 kHz
Frame rate : 31.250 FPS (1536 SPF)
Compression mode : Lossy
Stream size : 1.11 GiB (8%)
Title : Dub [Nevafilm]
Language : Russian
Service kind : Complete Main
Default : No
Forced : No
Complexity index : 16
Number of dynamic objects : 15
Bed channel count : 1 channel
Bed channel configuration : LFE

Audio #3
ID : 4
Format : E-AC-3 JOC
Format/Info : Enhanced AC-3 with Joint Object Coding
Commercial name : Dolby Digital Plus with Dolby Atmos
Codec ID : A_EAC3
Duration : 3 h 26 min
Bit rate mode : Constant
Bit rate : 768 kb/s
Channel(s) : 6 channels
Channel layout : L R C LFE Ls Rs
Sampling rate : 48.0 kHz
Frame rate : 31.250 FPS (1536 SPF)
Compression mode : Lossy
Stream size : 1.11 GiB (8%)
Title : Original
Language : English
Service kind : Complete Main
Default : No
Forced : No
Complexity index : 16
Number of dynamic objects : 15
Bed channel count : 1 channel
Bed channel configuration : LFE

Text #1
ID : 5
Format : UTF-8
Codec ID : S_TEXT/UTF8
Codec ID/Info : UTF-8 Plain Text
Duration : 3 h 21 min
Bit rate : 2 b/s
Frame rate : 0.007 FPS
Count of elements : 89
Stream size : 3.66 KiB (0%)
Title : Forced
Language : Russian
Default : No
Forced : Yes

Text #2
ID : 6
Format : UTF-8
Codec ID : S_TEXT/UTF8
Codec ID/Info : UTF-8 Plain Text
Duration : 3 h 24 min
Bit rate : 82 b/s
Frame rate : 0.195 FPS
Count of elements : 2390
Stream size : 123 KiB (0%)
Title : Full
Language : Russian
Default : No
Forced : No

Text #3
ID : 7
Format : UTF-8
Codec ID : S_TEXT/UTF8
Codec ID/Info : UTF-8 Plain Text
Duration : 3 h 21 min
Bit rate : 99 b/s
Frame rate : 0.228 FPS
Count of elements : 2756
Stream size : 148 KiB (0%)
Title : SDH
Language : Russian
Default : No
Forced : No

Text #4
ID : 8
Format : UTF-8
Codec ID : S_TEXT/UTF8
Codec ID/Info : UTF-8 Plain Text
Duration : 3 h 24 min
Bit rate : 83 b/s
Frame rate : 0.194 FPS
Count of elements : 2386
Stream size : 125 KiB (0%)
Title : Full
Language : Ukrainian
Default : No
Forced : No

Text #5
ID : 9
Format : UTF-8
Codec ID : S_TEXT/UTF8
Codec ID/Info : UTF-8 Plain Text
Duration : 2 h 48 min
Bit rate : 1 b/s
Frame rate : 0.007 FPS
Count of elements : 72
Stream size : 1.65 KiB (0%)
Title : Forced
Language : English
Default : No
Forced : No

Text #6
ID : 10
Format : UTF-8
Codec ID : S_TEXT/UTF8
Codec ID/Info : UTF-8 Plain Text
Duration : 3 h 16 min
Bit rate : 59 b/s
Frame rate : 0.208 FPS
Count of elements : 2448
Stream size : 86.0 KiB (0%)
Title : Full
Language : English
Default : No
Forced : No

Text #7
ID : 11
Format : UTF-8
Codec ID : S_TEXT/UTF8
Codec ID/Info : UTF-8 Plain Text
Duration : 3 h 17 min
Bit rate : 67 b/s
Frame rate : 0.236 FPS
Count of elements : 2801
Stream size : 98.0 KiB (0%)
Title : SDH
Language : English
Default : No
Forced : No

Другие фильмы
У данной публикации пока нет комментариев.
Будь первым, оставь своё мнение в комментариях!
Информация
Посетители, находящиеся в группе Гости, не могут оставлять комментарии к данной публикации.
Самый популярный релиз недели
Донаты
Мы в соц. сетях / RSS

Лучшие релизы месяца
Лучшие SD недели
Лучшие 720p недели
Лучшие 1080p недели
Лучшие 4K недели
Вы недавно смотрели
Реклама
Последние комментарии
...

zik77

2 марта 2024 07:26

...

korelov

23 февраля 2024 14:35

...

Desol

21 февраля 2024 00:28

...

diabloq

20 февраля 2024 14:17

...

slightlymad

17 февраля 2024 21:01

Реклама