+22

Голодные игры: Баллада о змеях и певчих птицах / The Hunger Games: The Ballad of Songbirds & Snakes (2023) BDRip-AVC от DoMiNo & селезень | D

Информация о фильме
Название: Голодные игры: Баллада о змеях и певчих птицах
Оригинальное название: The Hunger Games: The Ballad of Songbirds & Snakes
Год выхода: 2023
Жанр: Фантастика, боевик, триллер, драма, приключения, военный
Режиссер: Фрэнсис Лоуренс
В ролях: Том Блит, Рэйчел Зеглер, Питер Динклэйдж, Хантер Шафер, Джош Андрес Ривера, Джейсон Шварцман, Виола Дэвис, Финола Флэнаган, Берн Горман, Эшли Ляо

О фильме:
До того как стать деспотичным президентом Панэма, молодой Кориолан Сноу был последней надеждой своего увядающего рода — некогда великой династии, впавшей в немилость послевоенного Капитолия. Накануне десятых ежегодных Голодных игр Сноу назначают наставником Люси Грей Бэйрд — трибута дистрикта 12. Постепенно девушка привлекает все больше внимание Панэма, становясь фавориткой грядущего соревнования. Готовый на всё, чтобы вернуть своей семье былое величие, Сноу решает обратить ситуацию с Люси в свою пользу. Начинается гонка со временем, которая покажет, кто певчая птица, а кто — змея.

Страна: США, Канада
Студия: Color Force, Good Universe, Lions Gate Films Inc.
Продолжительность: 02:37:10
Перевод: Дублированный | Мосфильм-Мастер
Субтитры: Русские (Forced), английские

Файл
Формат: Matroska
Качество: BDRip-AVC [The.Hunger.Games.The.Ballad.of.Songbirds.&.Snakes.2023.1080p.Remux.AVC.TrueHD.Atmos.7.1-playBD]
Видео: 1024×428 at 23.976 fps, [email protected], ~1918 kbps
Аудио: AC3, 6 ch, ~448 kbps — | Русский | Голодные игры: Баллада о змеях и певчих птицах / The Hunger Games: The Ballad of Songbirds & Snakes (2023) BDRip-AVC от DoMiNo & селезень | D
Формат субтитров: softsub (SRT)

Авторизуйтесь для получения доступа к скачиванию

Нет аккаунта? Регистрация открыта и займёт меньше минуты

Вход Регистрация

General
Unique ID : 258475349537857026827711303451804611762 (0xC2748AA36B8683A1B7548478C19EB4B2)
Complete name : R:The.Hunger.Games.The.Ballad.of.Songbirds.and.Snakes.2023.DUB.x264.seleZen.mkv
Format : Matroska
Format version : Version 4
File size : 2.60 GiB
Duration : 2 h 37 min
Overall bit rate : 2 368 kb/s
Frame rate : 23.976 FPS
Movie name : The.Hunger.Games.The.Ballad.of.Songbirds.and.Snakes.2023.DUB.x264.seleZen
Encoded date : 2024-02-06 09:26:00 UTC
Writing application : mkvmerge v82.0 ('I'm The President') 64-bit
Writing library : libebml v1.4.5 + libmatroska v1.7.1
Cover : Yes
Attachments : cover.jpg / small_cover.jpg

Video
ID : 1
Format : AVC
Format/Info : Advanced Video Codec
Format profile : [email protected]
Format settings : CABAC / 14 Ref Frames
Format settings, CABAC : Yes
Format settings, Reference : 14 frames
Codec ID : V_MPEG4/ISO/AVC
Duration : 2 h 37 min
Bit rate : 1 918 kb/s
Width : 1 024 pixels
Height : 428 pixels
Display aspect ratio : 2.40:1
Frame rate mode : Constant
Frame rate : 23.976 (24000/1001) FPS
Color space : YUV
Chroma subsampling : 4:2:0
Bit depth : 8 bits
Scan type : Progressive
Bits/(Pixel*Frame) : 0.183
Stream size : 2.11 GiB (81%)
Title : -=DoMiNo=-
Writing library : x264 core 164 r3173 -DoMiNo
Encoding settings : cabac=1 / ref=14 / deblock=1:-2:-2 / analyse=0x3:0x133 / me=umh / subme=10 / psy=1 / psy_rd=1.01:0.03 / mixed_ref=1 / me_range=32 / chroma_me=1 / trellis=2 / 8x8dct=1 / cqm=0 / deadzone=21,11 / fast_pskip=0 / chroma_qp_offset=-3 / threads=16 / lookahead_threads=3 / sliced_threads=0 / nr=0 / decimate=0 / interlaced=0 / bluray_compat=0 / constrained_intra=0 / bframes=12 / b_pyramid=2 / b_adapt=2 / b_bias=0 / direct=1 / weightb=1 / open_gop=0 / weightp=2 / keyint=250 / keyint_min=23 / scenecut=40 / intra_refresh=0 / rc_lookahead=60 / rc=crf / mbtree=0 / crf=17.0 / qcomp=0.60 / qpmin=0 / qpmax=69 / qpstep=4 / vbv_maxrate=50000 / vbv_bufsize=62500 / crf_max=0.0 / nal_hrd=none / filler=0 / ip_ratio=1.30 / pb_ratio=1.30 / aq=3:0.80
Language : English
Default : Yes
Forced : No

Audio
ID : 2
Format : AC-3
Format/Info : Audio Coding 3
Commercial name : Dolby Digital
Codec ID : A_AC3
Duration : 2 h 37 min
Bit rate mode : Constant
Bit rate : 448 kb/s
Channel(s) : 6 channels
Channel layout : L R C LFE Ls Rs
Sampling rate : 48.0 kHz
Frame rate : 31.250 FPS (1536 SPF)
Compression mode : Lossy
Stream size : 504 MiB (19%)
Title : Дублированный | Мосфильм-Мастер
Language : Russian
Service kind : Complete Main
Default : Yes
Forced : No

Text #1
ID : 3
Format : UTF-8
Codec ID : S_TEXT/UTF8
Codec ID/Info : UTF-8 Plain Text
Duration : 1 h 55 min
Bit rate : 8 b/s
Frame rate : 0.020 FPS
Count of elements : 136
Stream size : 7.58 KiB (0%)
Title : Forced
Language : Russian
Default : No
Forced : No

Text #2
ID : 4
Format : UTF-8
Codec ID : S_TEXT/UTF8
Codec ID/Info : UTF-8 Plain Text
Duration : 2 h 26 min
Bit rate : 61 b/s
Frame rate : 0.259 FPS
Count of elements : 2269
Stream size : 65.9 KiB (0%)
Title : Full
Language : English
Default : No
Forced : No

Menu
00:00:00.000 : Chapter 01
00:12:36.506 : Chapter 02
00:24:22.586 : Chapter 03
00:34:06.002 : Chapter 04
00:46:53.936 : Chapter 05
00:56:09.741 : Chapter 06
01:08:28.438 : Chapter 07
01:19:22.424 : Chapter 08
01:26:41.113 : Chapter 09
01:33:59.509 : Chapter 10
01:40:45.706 : Chapter 11
01:47:35.658 : Chapter 12
01:54:55.680 : Chapter 13
02:05:09.544 : Chapter 14
02:13:03.392 : Chapter 15
02:19:05.796 : Chapter 16

Другие фильмы
Комментарии:

...
Muslim1818 6 января 2024 18:42
0

Спасибо ребята у вас сайт хороший, сидов много и скачивать удобно.

...
medjack 9 декабря 2023 16:19
0

Спасибо а будет 1080?) 

...
Fidelrus 9 декабря 2023 00:49
0

Добрый вечер а HD будет?

Спасибо вам 

Информация
Посетители, находящиеся в группе Гости, не могут оставлять комментарии к данной публикации.
Самый популярный релиз недели
Донаты
Мы в соц. сетях / RSS

Лучшие релизы месяца
Лучшие SD недели
Лучшие 720p недели
Лучшие 1080p недели
Лучшие 4K недели
Вы недавно смотрели
Реклама
Последние комментарии
...

Tony1984

Сегодня, 14:36

...

bolonka123

Вчера, 10:05

...

Sergunka

17 апреля 2024 23:31

...

-=DoMiNo=-

17 апреля 2024 13:52

...

bolonka123

17 апреля 2024 11:43

Реклама