+10

Аквамен и потерянное царство / Aquaman and the Lost Kingdom (2023) WEB-DLRip 1080p от селезень | D

Информация о фильме
Название: Аквамен и потерянное царство
Оригинальное название: Aquaman and the Lost Kingdom
Год выпуска: 2023
Жанр: фантастика, фэнтези, боевик, приключения
Режиссер: Джеймс Ван
Актеры: Джейсон Момоа, Патрик Уилсон, Яхья Абдул-Матин II, Дольф Лундгрен, Темуэра Моррисон, Николь Кидман, Яни Жао, Эмбер Хёрд, Винсент Риган, Рэндалл Пак

Описание:
Атлантиде — королевству Аквамена — грозит опасность. Злодей Черная Манта, одержимый стремлением отомстить герою за своего отца, овладел разрушительной мощью Черного трезубца и теперь не остановится ни перед чем. Ради спасения королевства и близких людей Аквамену придется объединить силы со своим сводным братом, Ормом — свергнутым королем Атлантиды, заключенным в тюрьму, — и забыть обо всех разногласиях, которые были между ними. «Аквамен и потерянное царство» — сиквел фильма «Аквамен» 2018-го года с Джейсоном Момоа в главной роли.

Производство: США, Великобритания, Канада, Австралия, Исландия / Warner Bros., DC Entertainment
Продолжительность: 02:04:07
Перевод: Дублированный | Официальный | SC Produb
Субтитры: Русcкие (Forced, Full), английские (Full, SDH)

Файл
Качество: WEB-DLRip 1080p | Исх.4K.2160p
Формат: MKV
Видео: 1920x1080, 23.976 fps, MPEG-4 AVC, ~11400 Kbps
Аудио 1: AC3, 6 ch, ~384 kbps - | Русский | Аквамен и потерянное царство / Aquaman and the Lost Kingdom (2023) WEB-DLRip 1080p от селезень | D
Аудио 2: E-AC3, 6 ch, ~384 kbps - | Русский |
Аудио 3: E-AC3 JOC, 6 ch, 768 Kbps - | Английский |
Формат субтитров: softsub (SRT)

Авторизуйтесь для получения доступа к скачиванию

Нет аккаунта? Регистрация открыта и займёт меньше минуты

Вход Регистрация

General
Unique ID : 15870640255299450341068803021720743215 (0xBF092FA363356BF3BE0D8DD45976D2F)
Complete name : H:VideoHAquaman.and.The.Lost.Kingdom.2023.WEB-DLRip.1080p.seleZen.mkv
Format : Matroska
Format version : Version 4
File size : 11.2 GiB
Duration : 2 h 4 min
Overall bit rate : 13.0 Mb/s
Frame rate : 23.976 FPS
Movie name : Aquaman and the Lost Kingdom 2023 from seleZen
Encoded date : 2024-01-23 14:42:06 UTC
Writing application : mkvmerge v80.0 ('Roundabout') 64-bit
Writing library : libebml v1.4.4 + libmatroska v1.7.1

Video
ID : 1
Format : AVC
Format/Info : Advanced Video Codec
Format profile : [email protected]
Format settings : CABAC / 4 Ref Frames
Format settings, CABAC : Yes
Format settings, Reference : 4 frames
Codec ID : V_MPEG4/ISO/AVC
Duration : 2 h 4 min
Bit rate : 11.4 Mb/s
Width : 1 920 pixels
Height : 1 080 pixels
Display aspect ratio : 16:9
Frame rate mode : Constant
Frame rate : 23.976 (24000/1001) FPS
Color space : YUV
Chroma subsampling : 4:2:0
Bit depth : 8 bits
Scan type : Progressive
Bits/(Pixel*Frame) : 0.230
Stream size : 9.90 GiB (88%)
Writing library : x264 core 164 r3164 seleZen
Encoding settings : cabac=1 / ref=4 / deblock=1:-2:-2 / analyse=0x3:0x133 / me=umh / subme=11 / psy=1 / psy_rd=1.02:0.01 / mixed_ref=1 / me_range=32 / chroma_me=1 / trellis=2 / 8x8dct=1 / cqm=0 / deadzone=21,11 / fast_pskip=0 / chroma_qp_offset=-3 / threads=34 / lookahead_threads=8 / sliced_threads=0 / nr=0 / decimate=0 / interlaced=0 / bluray_compat=0 / constrained_intra=0 / bframes=10 / b_pyramid=2 / b_adapt=2 / b_bias=0 / direct=1 / weightb=1 / open_gop=0 / weightp=2 / keyint=240 / keyint_min=23 / scenecut=40 / intra_refresh=0 / rc_lookahead=60 / rc=crf / mbtree=0 / crf=18.6 / qcomp=0.60 / qpmin=0 / qpmax=51 / qpstep=4 / vbv_maxrate=50000 / vbv_bufsize=62500 / crf_max=0.0 / nal_hrd=none / filler=0 / ip_ratio=1.40 / pb_ratio=1.30 / aq=3:0.80
Language : English
Default : Yes
Forced : No

Audio #1
ID : 2
Format : AC-3
Format/Info : Audio Coding 3
Commercial name : Dolby Digital
Codec ID : A_AC3
Duration : 2 h 4 min
Bit rate mode : Constant
Bit rate : 384 kb/s
Channel(s) : 6 channels
Channel layout : L R C LFE Ls Rs
Sampling rate : 48.0 kHz
Frame rate : 31.250 FPS (1536 SPF)
Compression mode : Lossy
Stream size : 341 MiB (3%)
Title : Dub
Language : Russian
Service kind : Complete Main
Default : Yes
Forced : No

Audio #2
ID : 3
Format : E-AC-3
Format/Info : Enhanced AC-3
Commercial name : Dolby Digital Plus
Codec ID : A_EAC3
Duration : 2 h 4 min
Bit rate mode : Constant
Bit rate : 384 kb/s
Channel(s) : 6 channels
Channel layout : L R C LFE Ls Rs
Sampling rate : 48.0 kHz
Frame rate : 31.250 FPS (1536 SPF)
Compression mode : Lossy
Stream size : 341 MiB (3%)
Title : Dub
Language : Russian
Service kind : Complete Main
Default : No
Forced : No

Audio #3
ID : 4
Format : E-AC-3 JOC
Format/Info : Enhanced AC-3 with Joint Object Coding
Commercial name : Dolby Digital Plus with Dolby Atmos
Codec ID : A_EAC3
Duration : 2 h 4 min
Bit rate mode : Constant
Bit rate : 768 kb/s
Channel(s) : 6 channels
Channel layout : L R C LFE Ls Rs
Sampling rate : 48.0 kHz
Frame rate : 31.250 FPS (1536 SPF)
Compression mode : Lossy
Delay relative to video : 11 ms
Stream size : 682 MiB (6%)
Title : Original
Language : English
Service kind : Complete Main
Default : No
Forced : No
Complexity index : 16
Number of dynamic objects : 15
Bed channel count : 1 channel
Bed channel configuration : LFE

Text #1
ID : 5
Format : UTF-8
Codec ID : S_TEXT/UTF8
Codec ID/Info : UTF-8 Plain Text
Duration : 1 h 56 min
Bit rate : 1 b/s
Frame rate : 0.003 FPS
Count of elements : 20
Stream size : 906 Bytes (0%)
Title : Forced
Language : Russian
Default : Yes
Forced : Yes

Text #2
ID : 6
Format : UTF-8
Codec ID : S_TEXT/UTF8
Codec ID/Info : UTF-8 Plain Text
Duration : 2 h 3 min
Bit rate : 59 b/s
Frame rate : 0.139 FPS
Count of elements : 1025
Stream size : 53.2 KiB (0%)
Title : Full
Language : Russian
Default : No
Forced : No

Text #3
ID : 7
Format : UTF-8
Codec ID : S_TEXT/UTF8
Codec ID/Info : UTF-8 Plain Text
Duration : 1 h 57 min
Bit rate : 47 b/s
Frame rate : 0.169 FPS
Count of elements : 1192
Stream size : 41.0 KiB (0%)
Title : Full
Language : English
Default : No
Forced : No

Text #4
ID : 8
Format : UTF-8
Codec ID : S_TEXT/UTF8
Codec ID/Info : UTF-8 Plain Text
Duration : 1 h 57 min
Bit rate : 58 b/s
Frame rate : 0.235 FPS
Count of elements : 1660
Stream size : 50.8 KiB (0%)
Title : SDH
Language : English
Default : No
Forced : No

Menu
00:00:00.000 : en:Chapter 01
00:07:42.212 : en:Chapter 02
00:17:39.934 : en:Chapter 03
00:22:21.216 : en:Chapter 04
00:26:32.050 : en:Chapter 05
00:37:26.037 : en:Chapter 06
00:43:56.094 : en:Chapter 07
00:51:45.605 : en:Chapter 08
00:59:12.010 : en:Chapter 09
01:05:55.622 : en:Chapter 10
01:14:39.729 : en:Chapter 11
01:23:37.267 : en:Chapter 12
01:28:33.938 : en:Chapter 13
01:36:11.062 : en:Chapter 14
01:47:28.239 : en:Chapter 15
01:52:56.401 : en:Chapter 16

Другие фильмы
У данной публикации пока нет комментариев.
Будь первым, оставь своё мнение в комментариях!
Информация
Посетители, находящиеся в группе Гости, не могут оставлять комментарии к данной публикации.
Самый популярный релиз недели
Донаты
Мы в соц. сетях / RSS

Лучшие релизы месяца
Лучшие SD недели
Лучшие 720p недели
Лучшие 1080p недели
Лучшие 4K недели
Вы недавно смотрели
Реклама
Последние комментарии
...

Tony1984

Сегодня, 14:36

...

bolonka123

Вчера, 10:05

...

Sergunka

17 апреля 2024 23:31

...

-=DoMiNo=-

17 апреля 2024 13:52

...

bolonka123

17 апреля 2024 11:43

Реклама