+12

Охота на киллера / Cult Killer (2024) BDRip 720p от DoMiNo & селезень | D

Информация о фильме
Название: Охота на киллера
Оригинальное название: Cult Killer
Год выхода: 2024
Жанр: Триллер, драма, криминал, детектив
Режиссер: Джон Кейес
В ролях: Шелли Хенниг, Элис Ив, Антонио Бандерас, Олуэн Фуэре, Ник Даннинг, Ким ДеЛонги, Пол Рейд, Мэттью Томпкинс, Кваку Форчун, Софи Кэннелл

Описание:
Когда убивают известного частного детектива Майка Таллини, за дело берется его протеже Кэсси Холт. В свое время он стал единственным человеком, который отнесся к Кэсси с уважением и заботой, помог ей завязать с мрачным прошлым. Поэтому после его жестокого убийства Кэсси решительно настроена найти виновного, лишившего ее самого дорогого. Во время расследования она вынуждена сотрудничать с убийцей, чтобы раскрыть ужасные тайны города и восстановить справедливость. «Охота на киллера» (2024) — криминальный триллер с Антонио Бандерасом в главной роли.

Страна: США
Студия: BondIt, Buffalo 8 Productions, Highland Myst Entertainment Inc., TYM Productions, Yale Productions
Продолжительность: 01:44:55
Перевод: Профессиональный (полное дублирование) | Akimbo Production
Субтитры: Русские (Full), Английские (Full, SDH)

Файл
Формат: Matroska
Качество: BDRip 720p | Исх.Cult.Killer.2024.MULTi.COMPLETE.BLURAY-XORBiTANT
Видео: 1280×536 at 23.976 fps, [email protected], ~3500 kbps
Аудио 1: AC3, 6 ch, ~640 kbps — | Русский | Охота на киллера / Cult Killer (2024) BDRip 720p от DoMiNo & селезень | D | DUB
Аудио 2: AC3, 6 ch, ~640 kbps — | Английский | | Original
Формат субтитров: softsub (SRT)

Авторизуйтесь для получения доступа к скачиванию

Нет аккаунта? Регистрация открыта и займёт меньше минуты

Вход Регистрация

x264 [info]: frame I:1288 Avg QP:13.63 size: 99320
x264 [info]: frame P:28201 Avg QP:14.54 size: 38677
x264 [info]: frame B:121441 Avg QP:17.68 size: 12642

General
Unique ID : 99596195831984508310040919839395145451 (0x4AED8793359C3F53570F1991B401E6EB)
Complete name : S:Cult.Killer.2024.DUB.BDRip.720p.x264.seleZen.mkv
Format : Matroska
Format version : Version 4
File size : 3.50 GiB
Duration : 1 h 44 min
Overall bit rate : 4 782 kb/s
Frame rate : 23.976 FPS
Movie name : Cult.Killer.2024.DUB.BDRip.720p.x264.seleZen
Encoded date : 2024-06-06 20:01:16 UTC
Writing application : mkvmerge v85.0 ('Shame For You') 64-bit
Writing library : libebml v1.4.5 + libmatroska v1.7.1
Cover : Yes
Attachments : cover.jpg / small_cover.jpg

Video
ID : 1
Format : AVC
Format/Info : Advanced Video Codec
Format profile : [email protected]
Format settings : CABAC / 12 Ref Frames
Format settings, CABAC : Yes
Format settings, Reference : 12 frames
Codec ID : V_MPEG4/ISO/AVC
Duration : 1 h 44 min
Bit rate : 3 500 kb/s
Width : 1 280 pixels
Height : 536 pixels
Display aspect ratio : 2.39:1
Frame rate mode : Constant
Frame rate : 23.976 (24000/1001) FPS
Color space : YUV
Chroma subsampling : 4:2:0
Bit depth : 8 bits
Scan type : Progressive
Bits/(Pixel*Frame) : 0.213
Stream size : 2.56 GiB (73%)
Title : -=DoMiNo=-
Writing library : x264 core 164 r3191 -DoMiNo
Encoding settings : cabac=1 / ref=12 / deblock=1:-3:-2 / analyse=0x3:0x133 / me=umh / subme=10 / psy=1 / psy_rd=1.03:0.05 / mixed_ref=1 / me_range=32 / chroma_me=1 / trellis=2 / 8x8dct=1 / cqm=0 / deadzone=21,11 / fast_pskip=0 / chroma_qp_offset=-3 / threads=17 / lookahead_threads=4 / sliced_threads=0 / nr=0 / decimate=1 / interlaced=0 / bluray_compat=0 / constrained_intra=0 / bframes=12 / b_pyramid=2 / b_adapt=2 / b_bias=0 / direct=3 / weightb=1 / open_gop=0 / weightp=2 / keyint=240 / keyint_min=23 / scenecut=40 / intra_refresh=0 / rc_lookahead=60 / rc=crf / mbtree=0 / crf=16.8 / qcomp=0.60 / qpmin=0 / qpmax=69 / qpstep=4 / vbv_maxrate=50000 / vbv_bufsize=62500 / crf_max=0.0 / nal_hrd=none / filler=0 / ip_ratio=1.40 / pb_ratio=1.30 / aq=1:0.80
Language : English
Default : Yes
Forced : No

Audio #1
ID : 2
Format : AC-3
Format/Info : Audio Coding 3
Commercial name : Dolby Digital
Codec ID : A_AC3
Duration : 1 h 44 min
Bit rate mode : Constant
Bit rate : 640 kb/s
Channel(s) : 6 channels
Channel layout : L R C LFE Ls Rs
Sampling rate : 48.0 kHz
Frame rate : 31.250 FPS (1536 SPF)
Compression mode : Lossy
Stream size : 480 MiB (13%)
Title : DUB -Akimbo Production
Language : Russian
Service kind : Complete Main
Default : Yes
Forced : No
Dialog Normalization : -31 dB
compr : -0.28 dB
cmixlev : -3.0 dB
surmixlev : -3 dB
dmixmod : Lo/Ro
ltrtcmixlev : -3.0 dB
ltrtsurmixlev : -3.0 dB
lorocmixlev : -3.0 dB
lorosurmixlev : -3.0 dB
dialnorm_Average : -31 dB
dialnorm_Minimum : -31 dB
dialnorm_Maximum : -31 dB

Audio #2
ID : 3
Format : AC-3
Format/Info : Audio Coding 3
Commercial name : Dolby Digital
Codec ID : A_AC3
Duration : 1 h 44 min
Bit rate mode : Constant
Bit rate : 640 kb/s
Channel(s) : 6 channels
Channel layout : L R C LFE Ls Rs
Sampling rate : 48.0 kHz
Frame rate : 31.250 FPS (1536 SPF)
Compression mode : Lossy
Stream size : 480 MiB (13%)
Title : Original
Language : English
Service kind : Complete Main
Default : No
Forced : No
Dialog Normalization : -31 dB
cmixlev : -4.5 dB
surmixlev : -6 dB
dialnorm_Average : -31 dB
dialnorm_Minimum : -31 dB
dialnorm_Maximum : -31 dB

Text #1
ID : 4
Format : UTF-8
Codec ID : S_TEXT/UTF8
Codec ID/Info : UTF-8 Plain Text
Duration : 1 h 38 min
Bit rate : 96 b/s
Frame rate : 0.258 FPS
Count of elements : 1528
Stream size : 69.7 KiB (0%)
Title : Full
Language : Russian
Default : No
Forced : No

Text #2
ID : 5
Format : UTF-8
Codec ID : S_TEXT/UTF8
Codec ID/Info : UTF-8 Plain Text
Duration : 1 h 35 min
Bit rate : 61 b/s
Frame rate : 0.259 FPS
Count of elements : 1481
Stream size : 43.0 KiB (0%)
Title : Full
Language : English
Default : No
Forced : No

Text #3
ID : 6
Format : UTF-8
Codec ID : S_TEXT/UTF8
Codec ID/Info : UTF-8 Plain Text
Duration : 1 h 35 min
Bit rate : 65 b/s
Frame rate : 0.276 FPS
Count of elements : 1585
Stream size : 46.0 KiB (0%)
Title : SDH
Language : English
Default : No
Forced : No

Menu
00:00:00.000 : Глава 1
00:08:30.426 : Глава 2
00:15:33.015 : Глава 3
00:25:15.555 : Глава 4
00:34:29.275 : Глава 5
00:41:46.545 : Глава 6
00:51:13.653 : Глава 7
00:59:31.442 : Глава 8
01:09:45.180 : Глава 9
01:18:37.671 : Глава 10
01:27:19.275 : Глава 11
01:35:48.409 : Глава 12

Другие фильмы
У данной публикации пока нет комментариев.
Будь первым, оставь своё мнение в комментариях!
Информация
Посетители, находящиеся в группе Гости, не могут оставлять комментарии к данной публикации.
Самый популярный релиз недели
Донаты
Мы в соц. сетях / RSS

Лучшие релизы месяца
Лучшие SD недели
Лучшие 720p недели
Лучшие 1080p недели
Лучшие 4K недели
Вы недавно смотрели
Реклама
Последние комментарии
...

Al1ksandr

21 июня 2024 21:02

...

Bonzo

14 июня 2024 14:52

...

rmzshka

13 июня 2024 17:48

...

rmzshka

13 июня 2024 12:24

...

LisNick

13 июня 2024 08:45

Реклама