+20

Последний наёмник / In the Land of Saints and Sinners (2023) BDRip 720p от DoMiNo & селезень | D

Информация о фильме
Название: Последний наёмник
Оригинальное название: In the Land of Saints and Sinners
Год выпуска: 2023
Жанр: Боевик, Триллер, Криминал
Режиссер: Роберт Лоренц / Robert Lorenz
В ролях: Лиам Нисон, Керри Кондон, Джек Глисон, Колм Мини, Киран Хайндс, Десмонд Иствуд, Сара Грин, Нив Кьюсак, Конор Макнил, Шеймус О’Хара, Валентайн Олукога, Марк О’Ригэн, Лаура Хьюз, Энн Броган, Мишель Глисон

О фильме:
Легендарный наемный убийца Финбар решает, что он уже не так хорош и ему пора отойти от дел. Но однажды в город, где он залег на дно, наведывается банда и начинает беспредел. Финбару ничего не остается, как встать на сторону правосудия и снова взяться за оружие. И на этот раз он рискует не только собой, но и всеми, кто ему дорог.

Выпущено: Ирландия / Bleiberg Entertainment, Davis-Films, Facing East, Great Point Media, London Town Films, Merlin Films, Prodigal Films, RagBag Pictures, Saga Film
Продолжительность: 01:46:11
Перевод: Дублированный (официальный) | Paragraph Media
Субтитры: Русские (Forced, Full), Английские

Файл
Формат: Matroska
Качество: BDRip 720p
Видео: 1280x534 at 23.976 fps, [email protected], ~3625 kbps
Аудио 1: AC3, 6 ch, ~448 kbps - | Русский | Последний наёмник / In the Land of Saints and Sinners (2023) BDRip 720p от DoMiNo & селезень | D
Аудио 2: E-AC3, 6 ch, ~448 kbps - | Русский |
Аудио 3: AC3, 6 ch, ~640 kbps - | Английский |
Формат субтитров: softsub (SRT)

Авторизуйтесь для получения доступа к скачиванию

Нет аккаунта? Регистрация открыта и займёт меньше минуты

Вход Регистрация

x264 [info]: frame I:1131 Avg QP:12.79 size:109919
x264 [info]: frame P:29696 Avg QP:14.99 size: 40586
x264 [info]: frame B:121932 Avg QP:17.01 size: 12772

General
Unique ID : 131617110136201441571670132040467086991 (0x6304888A505A6A8B3208B7FD5751FE8F)
Complete name : S:In.The.Land.of.Saints.and.Sinners.2023.DUB.BDRip.720p.x264.seleZen.mkv
Format : Matroska
Format version : Version 4
File size : 3.83 GiB
Duration : 1 h 46 min
Overall bit rate : 5 164 kb/s
Frame rate : 23.976 FPS
Movie name : In.The.Land.of.Saints.and.Sinners.2023.DUB.BDRip.720p.x264.seleZen
Encoded date : 2024-02-17 09:58:34 UTC
Writing application : mkvmerge v82.0 ('I'm The President') 64-bit
Writing library : libebml v1.4.5 + libmatroska v1.7.1
Cover : Yes
Attachments : cover.jpg / small_cover.jpg

Video
ID : 1
Format : AVC
Format/Info : Advanced Video Codec
Format profile : [email protected]
Format settings : CABAC / 12 Ref Frames
Format settings, CABAC : Yes
Format settings, Reference : 12 frames
Codec ID : V_MPEG4/ISO/AVC
Duration : 1 h 46 min
Bit rate : 3 625 kb/s
Width : 1 280 pixels
Height : 534 pixels
Display aspect ratio : 2.40:1
Frame rate mode : Constant
Frame rate : 23.976 (24000/1001) FPS
Color space : YUV
Chroma subsampling : 4:2:0
Bit depth : 8 bits
Scan type : Progressive
Bits/(Pixel*Frame) : 0.221
Stream size : 2.69 GiB (70%)
Title : -=DoMiNo=-
Writing library : x264 core 164 r3156+57M dac90dd t_mod_New [(8 & 10)-DoMiNo- X86_64]
Encoding settings : cabac=1 / ref=12 / deblock=1:-2:-2 / analyse=0x3:0x133 / me=umh / subme=10 / psy=1 / fade_compensate=0.00 / psy_rd=1.04:0.03 / mixed_ref=1 / me_range=32 / chroma_me=1 / trellis=2 / 8x8dct=1 / cqm=0 / deadzone=21,11 / fast_pskip=0 / chroma_qp_offset=-3 / threads=17 / lookahead_threads=4 / sliced_threads=0 / nr=0 / decimate=0 / interlaced=0 / bluray_compat=0 / constrained_intra=0 / fgo=0 / bframes=10 / b_pyramid=2 / b_adapt=2 / b_bias=0 / direct=1 / weightb=1 / open_gop=0 / weightp=2 / keyint=250 / keyint_min=23 / scenecut=40 / intra_refresh=0 / rc_lookahead=60 / rc=crf / mbtree=0 / crf=16.8000 / qcomp=0.60 / qpmin=0:0:0 / qpmax=69:69:69 / qpstep=4 / vbv_maxrate=50000 / vbv_bufsize=62500 / crf_max=0.0 / nal_hrd=none / filler=0 / ip_ratio=1.40 / pb_ratio=1.25 / aq=3:0.80 / aq-sensitivity=10.00 / aq-factor=1.00:1.00:1.00:1.00 / aq2=0 / aq3=0
Language : English
Default : Yes
Forced : No

Audio #1
ID : 2
Format : AC-3
Format/Info : Audio Coding 3
Commercial name : Dolby Digital
Codec ID : A_AC3
Duration : 1 h 46 min
Bit rate mode : Constant
Bit rate : 448 kb/s
Channel(s) : 6 channels
Channel layout : L R C LFE Ls Rs
Sampling rate : 48.0 kHz
Frame rate : 31.250 FPS (1536 SPF)
Compression mode : Lossy
Stream size : 340 MiB (9%)
Title : Dub -Paragraph Media
Language : Russian
Service kind : Complete Main
Default : Yes
Forced : No

Audio #2
ID : 3
Format : E-AC-3
Format/Info : Enhanced AC-3
Commercial name : Dolby Digital Plus
Codec ID : A_EAC3
Duration : 1 h 46 min
Bit rate mode : Constant
Bit rate : 448 kb/s
Channel(s) : 6 channels
Channel layout : L R C LFE Ls Rs
Sampling rate : 48.0 kHz
Frame rate : 31.250 FPS (1536 SPF)
Compression mode : Lossy
Stream size : 340 MiB (9%)
Title : Dub -Paragraph Media
Language : Russian
Service kind : Complete Main
Default : No
Forced : No

Audio #3
ID : 4
Format : AC-3
Format/Info : Audio Coding 3
Commercial name : Dolby Digital
Codec ID : A_AC3
Duration : 1 h 46 min
Bit rate mode : Constant
Bit rate : 640 kb/s
Channel(s) : 6 channels
Channel layout : L R C LFE Ls Rs
Sampling rate : 48.0 kHz
Frame rate : 31.250 FPS (1536 SPF)
Compression mode : Lossy
Stream size : 486 MiB (12%)
Title : Original
Language : English
Service kind : Complete Main
Default : No
Forced : No

Text #1
ID : 5
Format : UTF-8
Codec ID : S_TEXT/UTF8
Codec ID/Info : UTF-8 Plain Text
Duration : 1 h 5 min
Bit rate : 0 b/s
Frame rate : 0.002 FPS
Count of elements : 7
Stream size : 413 Bytes (0%)
Title : Forced
Language : Russian
Default : No
Forced : No

Text #2
ID : 6
Format : UTF-8
Codec ID : S_TEXT/UTF8
Codec ID/Info : UTF-8 Plain Text
Duration : 1 h 38 min
Bit rate : 67 b/s
Frame rate : 0.173 FPS
Count of elements : 1024
Stream size : 49.0 KiB (0%)
Title : Full
Language : Russian
Default : No
Forced : No

Text #3
ID : 7
Format : UTF-8
Codec ID : S_TEXT/UTF8
Codec ID/Info : UTF-8 Plain Text
Duration : 1 h 36 min
Bit rate : 47 b/s
Frame rate : 0.202 FPS
Count of elements : 1175
Stream size : 34.1 KiB (0%)
Title : Full
Language : English
Default : No
Forced : No

Text #4
ID : 8
Format : UTF-8
Codec ID : S_TEXT/UTF8
Codec ID/Info : UTF-8 Plain Text
Duration : 1 h 39 min
Bit rate : 58 b/s
Frame rate : 0.254 FPS
Count of elements : 1514
Stream size : 42.6 KiB (0%)
Title : SDH
Language : English
Default : No
Forced : No

Menu
00:00:00.000 : en:Chapter 01
00:11:32.650 : en:Chapter 02
00:32:55.390 : en:Chapter 03
00:49:43.021 : en:Chapter 04
01:04:58.311 : en:Chapter 05
01:22:16.431 : en:Chapter 06
01:39:26.126 : en:Chapter 07

Другие фильмы
У данной публикации пока нет комментариев.
Будь первым, оставь своё мнение в комментариях!
Информация
Посетители, находящиеся в группе Гости, не могут оставлять комментарии к данной публикации.
Самый популярный релиз недели
Донаты
Мы в соц. сетях / RSS

Лучшие релизы месяца
Лучшие SD недели
Лучшие 720p недели
Лучшие 1080p недели
Лучшие 4K недели
Вы недавно смотрели
Реклама
Последние комментарии
...

Tony1984

Сегодня, 14:36

...

bolonka123

Вчера, 10:05

...

Sergunka

17 апреля 2024 23:31

...

-=DoMiNo=-

17 апреля 2024 13:52

...

bolonka123

17 апреля 2024 11:43

Реклама