+12

Американское чтиво / American Fiction (2023) BDRip-AVC от DoMiNo & селезень | P

Информация о фильме
Название: Американское чтиво
Оригинальное название: American Fiction
Год выпуска: 2023
Жанр: драма, комедия
Режиссер: Корд Джефферсон / Cord Jefferson
В ролях: Джеффри Райт, Трейси Эллис Росс, Стерлинг Кэй Браун, Эрика Александр, Лесли Аггамс, Исса Рэй, Патрик Фишлер, Джон Ортиз, Майра Тейлор, Джей Си МакКензи, Адам Броуди, Мириам Шор, Нил Лернер, Киф Дэвид, Николь Кемпски, Скайлер Райт, Джон Алес, Кармен Кьюсак, Джозеф Маррелла, Стивен Баррелл

О фильме:
Чернокожий писатель, профессор и преподаватель литературы Телониус Эллисон по прозвищу Монк вынужден взять отпуск в университете, так как не все студенты согласны с его методами преподавания. Он отправляется навестить семью, с которой не общался около 10 лет, и обстоятельства складываются так, что мужчине теперь придётся содержать пожилую мать. Последнюю (и не особо популярную) книгу Монк выпустил уже давно, поэтому, решив побыстрее и попроще заработать, а также пошутить над повесткой, он под псевдонимом пишет на эбониксе роман, наполненный всевозможными стереотипами о чернокожем населении США. Внезапно издатели проявляют к произведению повышенный интерес.

Выпущено: США, Metro-Goldwyn-Mayer (MGM), 3 Arts Entertainment, Media Rights Capital, MRC Film, Orion Pictures
Продолжительность: 01:56:41
Перевод 1: Профессиональный (многоголосый, закадровый) | Flarrow Films
Перевод 2: Профессиональный (многоголосый, закадровый) | TVShows + вставки Flarrow Films на вырезанные сцены
Перевод 3: Профессиональный (многоголосый, закадровый) | NewStudio 18 +
Субтитры: Русские (Forced, Full), английские

Файл
Формат: Matroska
Качество: BDRip-AVC
Видео: 1024x436 at 23.976 fps, [email protected], ~1608 kbps
Аудио 1: AC3, 6 ch, ~448 kbps - | Русский | Американское чтиво / American Fiction (2023) BDRip-AVC от DoMiNo & селезень | P | Flarrow Films
Аудио 2: AC3, 2 ch, ~192 kbps - | Русский | | TVShows
Аудио 3: AC3, 6 ch, ~384 kbps - | Русский | | NewStudio
Формат субтитров: softsub (SRT)

Авторизуйтесь для получения доступа к скачиванию

Нет аккаунта? Регистрация открыта и займёт меньше минуты

Вход Регистрация

x264 [info]: frame I: 1334 Avg QP: 14.26 size: 68662
x264 [info]: frame P: 32526 Avg QP: 15.70 size: 19475
x264 [info]: frame B: 134004 Avg QP: 18.63 size: 5089
x264 [info]: consecutive B-frames: 1,4% 1,4% 4,6% 24,9% 14,7% 22,9% 10,8% 8,4% 2,5% 1,7% 1,8% 2,8% 0,8% 0,6% 0,4% 0,2% 0,3%

General
Unique ID: 236542187029885689610006985857398427865 (0xB1F45E3C889DAEC6FC60FFA7529750D9)
Complete name: T: American.Fiction.BDRip.x264.seleZen.mkv
Format: Matroska
Format version: Version 4
File size: 2.15 GiB
Duration: 1 h 56 min
Overall bit rate: 2 629 kb/s
Frame rate: 23.976 FPS
Movie name: American.Fiction.BDRip.x264.seleZen
Encoded date: 21.06.2024 16:13:29 UTC
Writing application: mkvmerge v85.0 ('Shame For You') 64-bit
Writing library: libebml v1.4.5 + libmatroska v1.7.1
Cover: Yes
Attachments: cover.jpg / small_cover.jpg

Video
ID: 1
Format: AVC
Format/Info: Advanced Video Codec
Format profile: [email protected]
Format settings: CABAC / 16 Ref Frames
Format settings, CABAC: Yes
Format settings, Reference: 16 frames
Codec ID: V_MPEG4/ISO/AVC
Duration: 1 h 56 min
Bit rate: 1 608 kb/s
Width: 1 024 pixels
Height: 436 pixels
Display aspect ratio: 2.35:1
Frame rate mode: Constant
Frame rate: 23.976 (24000/1001) FPS
Color space: YUV
Chroma subsampling: 4:2:0
Bit depth: 8 bits
Scan type: Progressive
Bits/(Pixel*Frame): 0.150
Stream size: 1.31 GiB (61%)
Title: -=DoMiNo=-
Writing library: x264 core 164 r3191 -DoMiNo
Encoding settings: cabac=1 / ref=16 / deblock=1:-3:-2 / analyse=0×3:0×133 / me=umh / subme=10 / psy=1 / psy_rd=1.05:0.05 / mixed_ref=1 / me_range=32 / chroma_me=1 / trellis=2 / 8×8dct=1 / cqm=0 / deadzone=21,11 / fast_pskip=0 / chroma_qp_offset=-3 / threads=14 / lookahead_threads=3 / sliced_threads=0 / nr=0 / decimate=1 / interlaced=0 / bluray_compat=0 / constrained_intra=0 / bframes=16 / b_pyramid=2 / b_adapt=2 / b_bias=0 / direct=3 / weightb=1 / open_gop=0 / weightp=2 / keyint=240 / keyint_min=23 / scenecut=40 / intra_refresh=0 / rc_lookahead=60 / rc=crf / mbtree=0 / crf=17.3 / qcomp=0.60 / qpmin=0 / qpmax=69 / qpstep=4 / vbv_maxrate=50000 / vbv_bufsize=62500 / crf_max=0.0 / nal_hrd=none / filler=0 / ip_ratio=1.40 / pb_ratio=1.30 / aq=3:0.90
Language: English
Default: Yes
Forced: No
Color range: Limited
Color primaries: BT.709
Transfer characteristics: BT.709
Matrix coefficients: BT.709

Audio #1
ID: 2
Format: AC-3
Format/Info: Audio Coding 3
Commercial name: Dolby Digital
Codec ID: A_AC3
Duration: 1 h 56 min
Bit rate mode: Constant
Bit rate: 448 kb/s
Channel (s): 6 channels
Channel layout: L R C LFE Ls Rs
Sampling rate: 48.0 kHz
Frame rate: 31.250 FPS (1536 SPF)
Compression mode: Lossy
Stream size: 375 MiB (17%)
Title: MVO — Flarrow Films
Language: Russian
Service kind: Complete Main
Default: Yes
Forced: No
Dialog Normalization: -31 dB
compr: -0.28 dB
cmixlev: -3.0 dB
surmixlev: -3 dB
mixlevel: 85 dB
roomtyp: 3
ltrtcmixlev: -3.0 dB
ltrtsurmixlev: -3.0 dB
lorocmixlev: -3.0 dB
lorosurmixlev: -3.0 dB
dialnorm_Average: -31 dB
dialnorm_Minimum: -31 dB
dialnorm_Maximum: -31 dB

Audio #2
ID: 3
Format: AC-3
Format/Info: Audio Coding 3
Commercial name: Dolby Digital
Codec ID: A_AC3
Duration: 1 h 56 min
Bit rate mode: Constant
Bit rate: 192 kb/s
Channel (s): 2 channels
Channel layout: L R
Sampling rate: 48.0 kHz
Frame rate: 31.250 FPS (1536 SPF)
Bit depth: 32 bits
Compression mode: Lossy
Stream size: 160 MiB (7%)
Title: MVO — TVShows
Language: Russian
Service kind: Complete Main
Default: No
Forced: No
Dialog Normalization: -31 dB
dialnorm_Average: -31 dB
dialnorm_Minimum: -31 dB
dialnorm_Maximum: -31 dB

Audio #3
ID: 4
Format: AC-3
Format/Info: Audio Coding 3
Commercial name: Dolby Digital
Codec ID: A_AC3
Duration: 1 h 56 min
Bit rate mode: Constant
Bit rate: 384 kb/s
Channel (s): 6 channels
Channel layout: L R C LFE Ls Rs
Sampling rate: 48.0 kHz
Frame rate: 31.250 FPS (1536 SPF)
Compression mode: Lossy
Stream size: 321 MiB (15%)
Title: MVO — NewStudio
Language: Russian
Service kind: Complete Main
Default: No
Forced: No
Dialog Normalization: -31 dB
cmixlev: -4.5 dB
surmixlev: -6 dB
dialnorm_Average: -31 dB
dialnorm_Minimum: -31 dB
dialnorm_Maximum: -31 dB

Text #1
ID: 5
Format: UTF-8
Codec ID: S_TEXT/UTF8
Codec ID/Info: UTF-8 Plain Text
Duration: 1 h 26 min
Bit rate: 0 b/s
Frame rate: 0.001 FPS
Count of elements: 4
Stream size: 196 Bytes (0%)
Title: Forced
Language: Russian
Default: No
Forced: No

Text #2
ID: 6
Format: UTF-8
Codec ID: S_TEXT/UTF8
Codec ID/Info: UTF-8 Plain Text
Duration: 1 h 49 min
Bit rate: 99 b/s
Frame rate: 0.295 FPS
Count of elements: 1943
Stream size: 79.9 KiB (0%)
Title: Full
Language: Russian
Default: No
Forced: No

Text #3
ID: 7
Format: UTF-8
Codec ID: S_TEXT/UTF8
Codec ID/Info: UTF-8 Plain Text
Duration: 1 h 49 min
Bit rate: 75 b/s
Frame rate: 0.323 FPS
Count of elements: 2127
Stream size: 60.8 KiB (0%)
Title: Full
Language: English
Default: No
Forced: No

Text #4
ID: 8
Format: UTF-8
Codec ID: S_TEXT/UTF8
Codec ID/Info: UTF-8 Plain Text
Duration: 1 h 54 min
Bit rate: 80 b/s
Frame rate: 0.338 FPS
Count of elements: 2323
Stream size: 67.8 KiB (0%)
Title: SDH
Language: English
Default: No
Forced: No

Menu
00:00:00.000: Chapter 01
00:09:36.742: Chapter 02
00:17:25.586: Chapter 03
00:27:11.963: Chapter 04
00:34:45.625: Chapter 05
00:44:36.548: Chapter 06
00:54:09.829: Chapter 07
01:02:03.344: Chapter 08
01:08:07.583: Chapter 09
01:16:01.223: Chapter 10
01:24:24.434: Chapter 11
01:34:10.811: Chapter 12
01:42:45.325: Chapter 13
01:50:49.768: Chapter 14

Другие фильмы
У данной публикации пока нет комментариев.
Будь первым, оставь своё мнение в комментариях!
Информация
Посетители, находящиеся в группе Гости, не могут оставлять комментарии к данной публикации.
Самый популярный релиз недели
Донаты
Мы в соц. сетях / RSS

Лучшие релизы месяца
Лучшие SD недели
Лучшие 720p недели
Лучшие 1080p недели
Лучшие 4K недели
Вы недавно смотрели
Реклама
Последние комментарии
...

fataxdd

16 июля 2024 07:13

...

Rustik99

12 июля 2024 10:11

...

Rograr

6 июля 2024 19:56

...

fenix

2 июля 2024 07:45

...

Fidelrus

28 июня 2024 13:53

Реклама