+5

Конан-разрушитель / Conan the Destroyer (1984) UHD BDRemux 2160p от селезень | 4K | HDR | Dolby Vision Profile 8 | P

Информация о фильме
Название: Конан-разрушитель
Оригинальное название: Conan the Destroyer
Год выхода: 1984
Жанр: фэнтези, боевик, приключения
Режиссер: Ричард Флейшер
В ролях: Арнольд Шварценеггер, Грейс Джонс, Уилт Чемберлен, Мако, Трейси Уолтер, Сара Дуглас, Оливия д'Або, Пэт Роуч, Джефф Кори, Свен-Оле Торсен

О фильме: Идеальная картина в жанре фэнтэзи с мечами, волшебниками и колдунами. Сюжет очень прост. Сексапильная королева нанимает Конана сопровождать юную принцессу в далекий замок, где находится драгоценный камень, способный высвободить могущественные и таинственные силы.

Коварная королева приказала своему воину убить Конана, когда задание будет выполнено, и вернуть домой принцессу, не нарушив ее девственности, дабы можно было принести ее в жертву. В пути группа сходится с чернокожей и взрывной воительницей. Длинноногая дикарка способна одна уложить множество врагов.

Одно приключение сменяет другое. Съемки, схватки, поединки, трюки поражают воображение. Великолепно воссоздается атмосфера приключений в неизвестные времена, в неизвестно каком измерении...


Страна: США, Мексика
Студия: Dino De Laurentiis Productions, Edward R. Pressman Film Corporation, Estudios Churubusco Azteca S.A.
Продолжительность: 01:41:00
Перевод: Профессиональный многоголосый | Карусель

Качество: BDRemux 2160p
Видео: 3840x2160 at 23.976 fps, MPEG-H HEVC HDR Video, 91300 kbps
Аудио #01: 48 kHz, AC3, 5.1, 448 Kbps | Профессиональный многоголосый | Карусель | RUS |Конан-разрушитель / Conan the Destroyer (1984) UHD  BDRemux 2160p от селезень | 4K | HDR | Dolby Vision Profile 8 | P
Аудио #02: 48 kHz, TrueHD, 7.1, 4154 Kbps | Оригинал | ENG |
Аудио #03: 48 kHz, AC3, 5.1, 320 Kbps | Оригинал | ENG |
Субтитры: Русские, Английские

Конан-разрушитель / Conan the Destroyer (1984) UHD  BDRemux 2160p от селезень | 4K | HDR | Dolby Vision Profile 8 | P

Авторизуйтесь для получения доступа к скачиванию

Нет аккаунта? Регистрация открыта и займёт меньше минуты

Вход Регистрация

General
Unique ID : 175552140571966951958120508784187613360 (0x84121CC866C2D8719EC3D696346920B0)
Complete name : H:\VideoH\Conan.The.Destroyer.1984.BDREMUX.2160p.HDR.DVP8.seleZen.mkv
Format : Matroska
Format version : Version 4
File size : 68.1 GiB
Duration : 1 h 41 min
Overall bit rate mode : Variable
Overall bit rate : 96.3 Mb/s
Frame rate : 23.976 FPS
Movie name : Conan The Destroyer (1984) from seleZen
Encoded date : 2024-02-14 16:30:29 UTC
Writing application : mkvmerge v80.0 ('Roundabout') 64-bit
Writing library : libebml v1.4.4 + libmatroska v1.7.1

Video
ID : 1
ID in the original source m : 4117 (0x1015)
Format : HEVC
Format/Info : High Efficiency Video Coding
Format profile : Main [email protected]@High
HDR format : Dolby Vision, Version 1.0, dvhe.08.06, BL+RPU, Blu-ray compatible / SMPTE ST 2086, HDR10 compatible
Codec ID : V_MPEGH/ISO/HEVC
Duration : 1 h 41 min
Bit rate : 91.3 Mb/s
Width : 3 840 pixels
Height : 2 160 pixels
Display aspect ratio : 16:9
Frame rate mode : Constant
Frame rate : 23.976 (24000/1001) FPS
Color space : YUV
Chroma subsampling : 4:2:0 (Type 2)
Bit depth : 10 bits
Bits/(Pixel*Frame) : 0.459
Stream size : 64.6 GiB (95%)
Language : English
Default : No
Forced : No
Color range : Limited
Color primaries : BT.2020
Transfer characteristics : PQ
Matrix coefficients : BT.2020 non-constant
Mastering display color pri : BT.2020
Mastering display luminance : min: 0.0001 cd/m2, max: 1000 cd/m2
Original source medium : Blu-ray

Audio #1
ID : 2
Format : AC-3
Format/Info : Audio Coding 3
Commercial name : Dolby Digital
Codec ID : A_AC3
Duration : 1 h 41 min
Bit rate mode : Constant
Bit rate : 448 kb/s
Channel(s) : 6 channels
Channel layout : L R C LFE Ls Rs
Sampling rate : 48.0 kHz
Frame rate : 31.250 FPS (1536 SPF)
Compression mode : Lossy
Stream size : 324 MiB (0%)
Title : MVO_Карусель
Language : Russian
Service kind : Complete Main
Default : Yes
Forced : No

Audio #2
ID : 3
Format : MLP FBA 16-ch
Format/Info : Meridian Lossless Packing FBA with 16-channel presentation
Commercial name : Dolby TrueHD with Dolby Atmos
Codec ID : A_TRUEHD
Duration : 1 h 41 min
Bit rate mode : Variable
Bit rate : 4 154 kb/s
Maximum bit rate : 6 504 kb/s
Channel(s) : 8 channels
Channel layout : L R C LFE Ls Rs Lb Rb
Sampling rate : 48.0 kHz
Frame rate : 1 200.000 FPS (40 SPF)
Compression mode : Lossless
Stream size : 2.93 GiB (4%)
Title : Original
Language : English
Default : No
Forced : No
Number of dynamic objects : 15
Bed channel count : 1 channel
Bed channel configuration : LFE

Audio #3
ID : 4
Format : AC-3
Format/Info : Audio Coding 3
Commercial name : Dolby Digital
Format settings : Dolby Surround EX
Codec ID : A_AC3
Duration : 1 h 41 min
Bit rate mode : Constant
Bit rate : 320 kb/s
Channel(s) : 6 channels
Channel layout : L R C LFE Ls Rs
Sampling rate : 48.0 kHz
Frame rate : 31.250 FPS (1536 SPF)
Compression mode : Lossy
Stream size : 231 MiB (0%)
Language : English
Service kind : Complete Main
Default : No
Forced : No

Text #1
ID : 5
Format : UTF-8
Codec ID : S_TEXT/UTF8
Codec ID/Info : UTF-8 Plain Text
Duration : 1 h 37 min
Bit rate : 30 b/s
Frame rate : 0.076 FPS
Count of elements : 449
Stream size : 21.9 KiB (0%)
Title : Full
Language : Russian
Default : No
Forced : No

Text #2
ID : 6
Format : UTF-8
Codec ID : S_TEXT/UTF8
Codec ID/Info : UTF-8 Plain Text
Duration : 1 h 37 min
Bit rate : 18 b/s
Frame rate : 0.071 FPS
Count of elements : 418
Stream size : 13.1 KiB (0%)
Title : Full
Language : English
Default : No
Forced : No

Text #3
ID : 7
Format : UTF-8
Codec ID : S_TEXT/UTF8
Codec ID/Info : UTF-8 Plain Text
Duration : 1 h 37 min
Bit rate : 23 b/s
Frame rate : 0.110 FPS
Count of elements : 648
Stream size : 16.7 KiB (0%)
Title : SDH
Language : English
Default : No
Forced : No

Menu
00:00:00.000 : en:Глава 01
00:10:01.434 : en:Глава 02
00:17:26.504 : en:Глава 03
00:24:36.392 : en:Глава 04
00:28:29.374 : en:Глава 05
00:35:40.722 : en:Глава 06
00:48:09.970 : en:Глава 07
00:58:32.384 : en:Глава 08
01:06:25.899 : en:Глава 09
01:15:11.590 : en:Глава 10
01:23:24.875 : en:Глава 11
01:34:28.746 : en:Глава 12

Другие фильмы
У данной публикации пока нет комментариев.
Будь первым, оставь своё мнение в комментариях!
Информация
Посетители, находящиеся в группе Гости, не могут оставлять комментарии к данной публикации.
Самый популярный релиз недели
Донаты
Мы в соц. сетях / RSS

Лучшие релизы месяца
Лучшие SD недели
Лучшие 720p недели
Лучшие 1080p недели
Лучшие 4K недели
Вы недавно смотрели
Реклама
Последние комментарии
...

Tony1984

Сегодня, 14:36

...

bolonka123

Вчера, 10:05

...

Sergunka

17 апреля 2024 23:31

...

-=DoMiNo=-

17 апреля 2024 13:52

...

bolonka123

17 апреля 2024 11:43

Реклама