+6

Тот, кто смотрит / Stranger in the Woods (2024) WEB-DL 1080p от селезень | D

Информация о фильме
Название: Тот, кто смотрит
Оригинальное название: Stranger in the Woods
Год выхода: 2024
Жанр: триллер
Режиссер: Адам Ньюачек
В ролях: Холли Кенни, Брендин Браун, Пэрис Николь, Радек Антчак, Тедди Спенсер, Девон Стюарт

О фильме: Оливия, пережившая гибель жениха и попытку самоубийства, отправляется со своими друзьями на природу. Ее близкие уверены, что свежий воздух и смена обстановки пойдут девушке на пользу. Но вместо этого Оливию начинает одолевать тревога. Она не может избавиться от ощущения, что леса вокруг их хижины таят опасность, а остановившийся по соседству сводный брат одного из ее друзей задумал что-то недоброе.

Страна: США
Студия: Wonk
Продолжительность: 01:19:22
Перевод: Дублированный

Качество: WEB-DL 1080p
Видео: MPEG-4 AVC, 1920x812, 4954 Kbit/s, 25.000 fps
Аудио #01: 48 kHz, AC3, 5.1, 384 Kbps | Дублированный | RUS |Тот, кто смотрит / Stranger in the Woods (2024) WEB-DL 1080p от селезень | D
Аудио #02: 48 kHz, E-AC3, 5.1, 384 Kbps | Дублированный | RUS |
Субтитры: Русские (Forced, full)

Тот, кто смотрит / Stranger in the Woods (2024) WEB-DL 1080p от селезень | D

Авторизуйтесь для получения доступа к скачиванию

Нет аккаунта? Регистрация открыта и займёт меньше минуты

Вход Регистрация

General
Unique ID : 124594867434267742558917300273872032957 (0x5DBC193E8FB8DEF34A87FB3A4B3AD4BD)
Complete name : H:\VideoH\Stranger.in.the.woods.2024.WEB-DL.1080p.seleZen.mkv
Format : Matroska
Format version : Version 4
File size : 3.17 GiB
Duration : 1 h 19 min
Overall bit rate : 5 724 kb/s
Frame rate : 25.000 FPS
Movie name : Stranger in the Woods 2024 from seleZen
Encoded date : 2024-02-14 22:19:42 UTC
Writing application : mkvmerge v80.0 ('Roundabout') 64-bit
Writing library : libebml v1.4.4 + libmatroska v1.7.1

Video
ID : 1
Format : AVC
Format/Info : Advanced Video Codec
Format profile : High@L4
Format settings : CABAC / 3 Ref Frames
Format settings, CABAC : Yes
Format settings, Reference : 3 frames
Codec ID : V_MPEG4/ISO/AVC
Duration : 1 h 19 min
Bit rate : 4 954 kb/s
Width : 1 920 pixels
Height : 812 pixels
Display aspect ratio : 2.35:1
Frame rate mode : Constant
Frame rate : 25.000 FPS
Color space : YUV
Chroma subsampling : 4:2:0
Bit depth : 8 bits
Scan type : Progressive
Bits/(Pixel*Frame) : 0.127
Stream size : 2.75 GiB (87%)
Language : English
Default : Yes
Forced : No
Color range : Limited
Color primaries : BT.709
Transfer characteristics : BT.709
Matrix coefficients : BT.709

Audio #1
ID : 2
Format : AC-3
Format/Info : Audio Coding 3
Commercial name : Dolby Digital
Codec ID : A_AC3
Duration : 1 h 19 min
Bit rate mode : Constant
Bit rate : 384 kb/s
Channel(s) : 6 channels
Channel layout : L R C LFE Ls Rs
Sampling rate : 48.0 kHz
Frame rate : 31.250 FPS (1536 SPF)
Compression mode : Lossy
Stream size : 218 MiB (7%)
Title : Dub
Language : Russian
Service kind : Complete Main
Default : Yes
Forced : No

Audio #2
ID : 3
Format : E-AC-3
Format/Info : Enhanced AC-3
Commercial name : Dolby Digital Plus
Codec ID : A_EAC3
Duration : 1 h 19 min
Bit rate mode : Constant
Bit rate : 384 kb/s
Channel(s) : 6 channels
Channel layout : L R C LFE Ls Rs
Sampling rate : 48.0 kHz
Frame rate : 31.250 FPS (1536 SPF)
Bit depth : 32 bits
Compression mode : Lossy
Stream size : 218 MiB (7%)
Title : Dub
Language : Abkhazian
Service kind : Complete Main
Default : No
Forced : No

Text #1
ID : 4
Format : UTF-8
Codec ID : S_TEXT/UTF8
Codec ID/Info : UTF-8 Plain Text
Duration : 1 h 17 min
Bit rate : 2 b/s
Frame rate : 0.008 FPS
Count of elements : 35
Stream size : 1.47 KiB (0%)
Title : Forced
Language : Russian
Default : Yes
Forced : Yes

Text #2
ID : 5
Format : UTF-8
Codec ID : S_TEXT/UTF8
Codec ID/Info : UTF-8 Plain Text
Duration : 1 h 17 min
Bit rate : 76 b/s
Frame rate : 0.288 FPS
Count of elements : 1332
Stream size : 43.1 KiB (0%)
Title : Full
Language : Russian
Default : No
Forced : No

Другие фильмы
У данной публикации пока нет комментариев.
Будь первым, оставь своё мнение в комментариях!
Информация
Посетители, находящиеся в группе Гости, не могут оставлять комментарии к данной публикации.
Самый популярный релиз недели
Донаты
Мы в соц. сетях / RSS

Лучшие релизы месяца
Лучшие SD недели
Лучшие 720p недели
Лучшие 1080p недели
Лучшие 4K недели
Вы недавно смотрели
Реклама
Последние комментарии
...

Tony1984

Сегодня, 14:36

...

bolonka123

Вчера, 10:05

...

Sergunka

17 апреля 2024 23:31

...

-=DoMiNo=-

17 апреля 2024 13:52

...

bolonka123

17 апреля 2024 11:43

Реклама