+7

На игле / Trainspotting (1996) UHD BDRemux 2160p от селезень | 4K | HDR | Dolby Vision Profile 8 | P

Информация о фильме
Название: На игле
Оригинальное название: Trainspotting
Год выхода: 1996
Жанр: драма, криминал
Режиссер: Дэнни Бойл
В ролях: Юэн Макгрегор, Юэн Бремнер, Джонни Ли Миллер, Кевин МакКидд, Роберт Карлайл, Келли Макдоналд, Питер Муллан, Джеймс Космо, Айлин Николас, Сьюзэн Видлер

О фильме: История четырёх друзей-наркоманов в Эдинбурге 1990-х годов. Кто-то из них пытается завязать, а кто-то озабочен только тем, как достать очередную дозу.

Страна: Великобритания
Студия: Channel Four Films, Figment Films, The Noel Gay Motion Picture Company
Продолжительность: 01:34:09
Перевод: Профессиональный многоголосый | CP Digital

Качество: BDRemux 2160p
Видео: 3840x2160 at 23.976 fps, MPEG-H HEVC HDR Video, 83800 kbps
Аудио #01: 48 kHz, AC3, 5.1, 640 Kbps | Профессиональный многоголосый | CP Digital | RUS |На игле / Trainspotting (1996) UHD BDRemux 2160p от селезень | 4K | HDR | Dolby Vision Profile 8 | P
Аудио #02: 48 kHz, DTS-HD MA, 5.1, 3980 Kbps | Оригинал | ENG |
Субтитры: Русские, Английские

На игле / Trainspotting (1996) UHD BDRemux 2160p от селезень | 4K | HDR | Dolby Vision Profile 8 | P

Авторизуйтесь для получения доступа к скачиванию

Нет аккаунта? Регистрация открыта и займёт меньше минуты

Вход Регистрация

General
Unique ID : 258068981627869658680217043858625174632 (0xC22647274D8544F6B496F34723E89C68)
Complete name : H:\VideoH\Trainspotting.1996.BDREMUX.2160p.HDR.DVP8.seleZen.mkv
Format : Matroska
Format version : Version 4
File size : 58.2 GiB
Duration : 1 h 34 min
Overall bit rate mode : Variable
Overall bit rate : 88.4 Mb/s
Frame rate : 23.976 FPS
Movie name : Trainspotting 1996 from seleZen
Encoded date : 2024-02-17 18:28:55 UTC
Writing application : mkvmerge v80.0 ('Roundabout') 64-bit
Writing library : libebml v1.4.4 + libmatroska v1.7.1

Video
ID : 1
ID in the original source m : 4117 (0x1015)
Format : HEVC
Format/Info : High Efficiency Video Coding
Format profile : Main [email protected]@High
HDR format : Dolby Vision, Version 1.0, dvhe.08.06, BL+RPU, Blu-ray compatible / SMPTE ST 2086, HDR10 compatible
Codec ID : V_MPEGH/ISO/HEVC
Duration : 1 h 34 min
Bit rate : 83.8 Mb/s
Width : 3 840 pixels
Height : 2 160 pixels
Display aspect ratio : 16:9
Frame rate mode : Constant
Frame rate : 23.976 (24000/1001) FPS
Color space : YUV
Chroma subsampling : 4:2:0 (Type 2)
Bit depth : 10 bits
Bits/(Pixel*Frame) : 0.422
Stream size : 55.1 GiB (95%)
Language : English
Default : No
Forced : No
Color range : Limited
Color primaries : BT.2020
Transfer characteristics : PQ
Matrix coefficients : BT.2020 non-constant
Mastering display color pri : Display P3
Mastering display luminance : min: 0.0001 cd/m2, max: 1000 cd/m2
Original source medium : Blu-ray

Audio #1
ID : 2
Format : AC-3
Format/Info : Audio Coding 3
Commercial name : Dolby Digital
Codec ID : A_AC3
Duration : 1 h 34 min
Bit rate mode : Constant
Bit rate : 640 kb/s
Channel(s) : 6 channels
Channel layout : L R C LFE Ls Rs
Sampling rate : 48.0 kHz
Frame rate : 31.250 FPS (1536 SPF)
Compression mode : Lossy
Stream size : 431 MiB (1%)
Title : MVO_CP Digital
Language : Russian
Service kind : Complete Main
Default : Yes
Forced : No

Audio #2
ID : 3
Format : DTS XLL
Format/Info : Digital Theater Systems
Commercial name : DTS-HD Master Audio
Codec ID : A_DTS
Duration : 1 h 34 min
Bit rate mode : Variable
Bit rate : 3 980 kb/s
Channel(s) : 6 channels
Channel layout : C L R Ls Rs LFE
Sampling rate : 48.0 kHz
Frame rate : 93.750 FPS (512 SPF)
Bit depth : 24 bits
Compression mode : Lossless
Stream size : 2.62 GiB (4%)
Title : Original
Language : English
Default : No
Forced : No

Text #1
ID : 4
Format : UTF-8
Codec ID : S_TEXT/UTF8
Codec ID/Info : UTF-8 Plain Text
Duration : 1 h 29 min
Bit rate : 0 b/s
Frame rate : 0.003 FPS
Count of elements : 14
Stream size : 480 Bytes (0%)
Title : Forced
Language : Russian
Default : Yes
Forced : No

Text #2
ID : 5
Format : UTF-8
Codec ID : S_TEXT/UTF8
Codec ID/Info : UTF-8 Plain Text
Duration : 1 h 30 min
Bit rate : 104 b/s
Frame rate : 0.170 FPS
Count of elements : 923
Stream size : 69.3 KiB (0%)
Title : Full
Language : Russian
Default : No
Forced : No

Text #3
ID : 6
Format : UTF-8
Codec ID : S_TEXT/UTF8
Codec ID/Info : UTF-8 Plain Text
Duration : 1 h 29 min
Bit rate : 117 b/s
Frame rate : 0.216 FPS
Count of elements : 1163
Stream size : 77.2 KiB (0%)
Title : Full v2
Language : Russian
Default : No
Forced : No

Text #4
ID : 7
Format : UTF-8
Codec ID : S_TEXT/UTF8
Codec ID/Info : UTF-8 Plain Text
Duration : 1 h 29 min
Bit rate : 109 b/s
Frame rate : 0.223 FPS
Count of elements : 1203
Stream size : 71.8 KiB (0%)
Title : Full v3
Language : Russian
Default : No
Forced : No

Text #5
ID : 8
Format : UTF-8
Codec ID : S_TEXT/UTF8
Codec ID/Info : UTF-8 Plain Text
Duration : 1 h 30 min
Bit rate : 96 b/s
Frame rate : 0.230 FPS
Count of elements : 1242
Stream size : 63.5 KiB (0%)
Title : Full Focus Studio
Language : Russian
Default : No
Forced : No

Text #6
ID : 9
Format : UTF-8
Codec ID : S_TEXT/UTF8
Codec ID/Info : UTF-8 Plain Text
Duration : 1 h 29 min
Bit rate : 71 b/s
Frame rate : 0.256 FPS
Count of elements : 1380
Stream size : 47.2 KiB (0%)
Title : Full
Language : English
Default : No
Forced : No

Menu
00:00:00.000 : en:Глава 01
00:06:31.016 : en:Глава 02
00:08:43.022 : en:Глава 03
00:11:48.875 : en:Глава 04
00:14:25.114 : en:Глава 05
00:16:39.332 : en:Глава 06
00:20:31.355 : en:Глава 07
00:24:57.204 : en:Глава 08
00:28:47.017 : en:Глава 09
00:32:23.900 : en:Глава 10
00:34:53.425 : en:Глава 11
00:38:27.347 : en:Глава 12
00:42:30.965 : en:Глава 13
00:45:45.826 : en:Глава 14
00:51:03.894 : en:Глава 15
01:01:30.812 : en:Глава 16
01:07:04.812 : en:Глава 17
01:08:48.458 : en:Глава 18
01:11:08.890 : en:Глава 19
01:13:44.253 : en:Глава 20
01:18:41.884 : en:Глава 21
01:26:07.662 : en:Глава 22

Другие фильмы
У данной публикации пока нет комментариев.
Будь первым, оставь своё мнение в комментариях!
Информация
Посетители, находящиеся в группе Гости, не могут оставлять комментарии к данной публикации.
Самый популярный релиз недели
Донаты
Мы в соц. сетях / RSS

Лучшие релизы месяца
Лучшие SD недели
Лучшие 720p недели
Лучшие 1080p недели
Лучшие 4K недели
Вы недавно смотрели
Реклама
Последние комментарии
...

Tony1984

Сегодня, 14:36

...

bolonka123

Вчера, 10:05

...

Sergunka

17 апреля 2024 23:31

...

-=DoMiNo=-

17 апреля 2024 13:52

...

bolonka123

17 апреля 2024 11:43

Реклама