+14

Территория зла / Land of Bad (2024) BDRip 720p от селезень | D, P2, A

Информация о фильме
Название: Территория зла
Оригинальное название: Land of Bad
Год выхода: 2024
Жанр: боевик, криминал
Режиссер: Уильям Юбэнк / William Eubank
В ролях: Лиам Хемсворт, Рассел Кроу, Люк Хемсворт, Рики Уиттл, Майло Вентимилья, Chika Ikogwe, Дэниэл Макферсон, Роберт Рабия, Джек Финстерер, Chris Masters Mah и др.

О фильме:
Рипер, оператор беспилотника, оказывает воздушную поддержку команде, которая попадает в ловушку, оставшись без оружия. Теперь их единственным средством связи и шансом на выживание становится беспилотник. «Территория зла» — экшен-триллер с Расселом Кроу и Лиамом Хемсвортом.

Страна: США / Volition Media Partners, Broken Open Pictures, Highland Film Group (HFG)
Продолжительность: 01:53:37
Перевод (ы):
#1: Дублированный | Мосфильм-Мастер
#2: Профессиональный двухголосый | ViruseProject 18 +
#3: Авторский (одноголосый закадровый) | А. Гаврилов
Субтитры: Русские (Forced), английские

Файл
Формат: Matroska
Качество: BDRip 720p
Видео: 1280×536 at 23.976 fps, MPEG-4 AVC, ~5175 kbps
Аудио #01: 48 kHz, AC3, 5.1, 448 Kbps | Мосфильм-Мастер | RUS | Территория зла / Land of Bad (2024) BDRip 720p от селезень | D, P2, A
Аудио #02: 48 kHz, AC3, 5.1, 640 Kbps | ViruseProject | RUS |
Аудио #03: 48 kHz, AC3, 5.1, 640 Kbps | А. Гаврилов | RUS |
Аудио #04: 48 kHz, AC3, 5.1, 640 Kbps | Оригинал | ENG |
Формат субтитров: softsub (SRT)

Авторизуйтесь для получения доступа к скачиванию

Нет аккаунта? Регистрация открыта и займёт меньше минуты

Вход Регистрация

x264 [info]: frame I: 1219 Avg QP: 14.19 size: 103288
x264 [info]: frame P: 37865 Avg QP: 15.54 size: 50566
x264 [info]: frame B: 124370 Avg QP: 17.80 size: 19048
x264 [info]: consecutive B-frames: 2,8% 3,5% 12,9% 17,6% 16,7% 36,9% 4,8% 0,9% 1,3% 0,7% 0,6% 0,5% 0,5%

General
Unique ID: 280862908707184646527324649262568017379 (0xD34C3A867DFA1608C6FDD2F592918DE3)
Complete name: K: Land.of.Bad.2024.BDRip.720p.x264.seleZen.mkv
Format: Matroska
Format version: Version 4
File size: 5.99 GiB
Duration: 1 h 53 min
Overall bit rate: 7 545 kb/s
Frame rate: 23.976 FPS
Movie name: Land.of.Bad.2024.BDRip.720p.x264.seleZen
Encoded date: 09.07.2024 16:43:46 UTC
Writing application: mkvmerge v85.0 ('Shame For You') 64-bit
Writing library: libebml v1.4.5 + libmatroska v1.7.1
Cover: Yes
Attachments: cover.jpg / small_cover.jpg

Video
ID: 1
Format: AVC
Format/Info: Advanced Video Codec
Format profile: [email protected]
Format settings: CABAC / 12 Ref Frames
Format settings, CABAC: Yes
Format settings, Reference: 12 frames
Codec ID: V_MPEG4/ISO/AVC
Duration: 1 h 53 min
Bit rate: 5 175 kb/s
Width: 1 280 pixels
Height: 536 pixels
Display aspect ratio: 2.39:1
Frame rate mode: Constant
Frame rate: 23.976 (24000/1001) FPS
Color space: YUV
Chroma subsampling: 4:2:0
Bit depth: 8 bits
Scan type: Progressive
Bits/(Pixel*Frame): 0.315
Stream size: 4.11 GiB (69%)
Title: -=DoMiNo=-
Writing library: x264 core 164 r3191 -DoMiNo
Encoding settings: cabac=1 / ref=12 / deblock=1:-3:-2 / analyse=0×3:0×133 / me=umh / subme=10 / psy=1 / psy_rd=1.05:0.05 / mixed_ref=1 / me_range=32 / chroma_me=1 / trellis=2 / 8×8dct=1 / cqm=0 / deadzone=21,11 / fast_pskip=0 / chroma_qp_offset=-3 / threads=17 / lookahead_threads=4 / sliced_threads=0 / nr=0 / decimate=1 / interlaced=0 / bluray_compat=0 / constrained_intra=0 / bframes=12 / b_pyramid=2 / b_adapt=2 / b_bias=0 / direct=3 / weightb=1 / open_gop=0 / weightp=2 / keyint=240 / keyint_min=23 / scenecut=40 / intra_refresh=0 / rc_lookahead=60 / rc=crf / mbtree=0 / crf=16.3 / qcomp=0.60 / qpmin=0 / qpmax=69 / qpstep=4 / vbv_maxrate=50000 / vbv_bufsize=62500 / crf_max=0.0 / nal_hrd=none / filler=0 / ip_ratio=1.40 / pb_ratio=1.30 / aq=1:0.80
Language: English
Default: Yes
Forced: No
Color range: Limited
Color primaries: BT.709
Transfer characteristics: BT.709
Matrix coefficients: BT.709

Audio #1
ID: 2
Format: AC-3
Format/Info: Audio Coding 3
Commercial name: Dolby Digital
Codec ID: A_AC3
Duration: 1 h 53 min
Bit rate mode: Constant
Bit rate: 448 kb/s
Channel (s): 6 channels
Channel layout: L R C LFE Ls Rs
Sampling rate: 48.0 kHz
Frame rate: 31.250 FPS (1536 SPF)
Compression mode: Lossy
Stream size: 364 MiB (6%)
Title: Dub — Мосфильм мастер
Language: Russian
Service kind: Complete Main
Default: Yes
Forced: No
Dialog Normalization: -24 dB
compr: -0.28 dB
cmixlev: -3.0 dB
surmixlev: -3 dB
mixlevel: 285 dB
roomtyp: 3
ltrtcmixlev: -3.0 dB
ltrtsurmixlev: -3.0 dB
lorocmixlev: -3.0 dB
lorosurmixlev: -4.5 dB
dialnorm_Average: -24 dB
dialnorm_Minimum: -24 dB
dialnorm_Maximum: -24 dB

Audio #2
ID: 3
Format: AC-3
Format/Info: Audio Coding 3
Commercial name: Dolby Digital
Codec ID: A_AC3
Duration: 1 h 53 min
Bit rate mode: Constant
Bit rate: 640 kb/s
Channel (s): 6 channels
Channel layout: L R C LFE Ls Rs
Sampling rate: 48.0 kHz
Frame rate: 31.250 FPS (1536 SPF)
Compression mode: Lossy
Stream size: 520 MiB (8%)
Title: DVO — ViruseProject 18+
Language: Russian
Service kind: Complete Main
Default: No
Forced: No
Dialog Normalization: -31 dB
compr: -0.28 dB
cmixlev: -3.0 dB
surmixlev: -3 dB
dmixmod: Lo/Ro
ltrtcmixlev: -3.0 dB
ltrtsurmixlev: -3.0 dB
lorocmixlev: -3.0 dB
lorosurmixlev: -3.0 dB
dialnorm_Average: -31 dB
dialnorm_Minimum: -31 dB
dialnorm_Maximum: -31 dB

Audio #3
ID: 4
Format: AC-3
Format/Info: Audio Coding 3
Commercial name: Dolby Digital
Codec ID: A_AC3
Duration: 1 h 53 min
Bit rate mode: Constant
Bit rate: 640 kb/s
Channel (s): 6 channels
Channel layout: L R C LFE Ls Rs
Sampling rate: 48.0 kHz
Frame rate: 31.250 FPS (1536 SPF)
Compression mode: Lossy
Stream size: 520 MiB (8%)
Title: AVO — А. Гаврилов
Language: Russian
Service kind: Complete Main
Default: No
Forced: No
Dialog Normalization: -24 dB
compr: -0.28 dB
cmixlev: -3.0 dB
surmixlev: -3 dB
mixlevel: 285 dB
roomtyp: 3
ltrtcmixlev: -3.0 dB
ltrtsurmixlev: -3.0 dB
lorocmixlev: -3.0 dB
lorosurmixlev: -4.5 dB
dialnorm_Average: -24 dB
dialnorm_Minimum: -24 dB
dialnorm_Maximum: -24 dB

Audio #4
ID: 5
Format: AC-3
Format/Info: Audio Coding 3
Commercial name: Dolby Digital
Codec ID: A_AC3
Duration: 1 h 53 min
Bit rate mode: Constant
Bit rate: 640 kb/s
Channel (s): 6 channels
Channel layout: L R C LFE Ls Rs
Sampling rate: 48.0 kHz
Frame rate: 31.250 FPS (1536 SPF)
Compression mode: Lossy
Stream size: 520 MiB (8%)
Language: English
Service kind: Complete Main
Default: No
Forced: No
Dialog Normalization: -31 dB
compr: -0.28 dB
cmixlev: -3.0 dB
surmixlev: -3 dB
dmixmod: Lt/Rt
ltrtcmixlev: -3.0 dB
ltrtsurmixlev: -3.0 dB
lorocmixlev: -3.0 dB
lorosurmixlev: -3.0 dB
dialnorm_Average: -31 dB
dialnorm_Minimum: -31 dB
dialnorm_Maximum: -31 dB

Text #1
ID: 6
Format: UTF-8
Codec ID: S_TEXT/UTF8
Codec ID/Info: UTF-8 Plain Text
Duration: 1 h 42 min
Bit rate: 1 b/s
Frame rate: 0.006 FPS
Count of elements: 36
Stream size: 1.29 KiB (0%)
Title: Forced
Language: Russian
Default: No
Forced: No

Text #2
ID: 7
Format: UTF-8
Codec ID: S_TEXT/UTF8
Codec ID/Info: UTF-8 Plain Text
Duration: 1 h 52 min
Bit rate: 48 b/s
Frame rate: 0.215 FPS
Count of elements: 1450
Stream size: 39.6 KiB (0%)
Title: Full
Language: English
Default: No
Forced: No

Text #3
ID: 8
Format: UTF-8
Codec ID: S_TEXT/UTF8
Codec ID/Info: UTF-8 Plain Text
Duration: 1 h 53 min
Bit rate: 60 b/s
Frame rate: 0.266 FPS
Count of elements: 1807
Stream size: 50.6 KiB (0%)
Title: SDH
Language: English
Default: No
Forced: No

Menu
00:00:00.000: en: Chapter 01
00:16:02.920: en: Chapter 02
00:30:08.932: en: Chapter 03
00:47:25.968: en: Chapter 04
01:02:51.809: en: Chapter 05
01:13:42.251: en: Chapter 06
01:30:41.269: en: Chapter 07
01:47:22.227: en: Chapter 08

Другие фильмы
Комментарии:

...
Desol 21 февраля 2024 00:28
0

diabloq,

Для новых wink

Информация
Посетители, находящиеся в группе Гости, не могут оставлять комментарии к данной публикации.
Самый популярный релиз недели
Донаты
Мы в соц. сетях / RSS

Лучшие релизы месяца
Лучшие SD недели
Лучшие 720p недели
Лучшие 1080p недели
Лучшие 4K недели
Вы недавно смотрели
Реклама
Последние комментарии
...

fataxdd

16 июля 2024 07:13

...

Rustik99

12 июля 2024 10:11

...

Rograr

6 июля 2024 19:56

...

fenix

2 июля 2024 07:45

...

Fidelrus

28 июня 2024 13:53

Реклама