+7

Из глубины / No Way Up (2024) WEB-DL 720p от селезень | D, P2

Информация о фильме
Название: Из глубины
Оригинальное название: No Way Up
Год выхода: 2024
Жанр: Боевик, триллер, драма, приключения
Режиссер: Клаудио Фах
В ролях: Софи Макинтош, Келси Грэммер, Филлис Логан, Колм Мини, Уильям Аттенборо, Джеймс Кэрролл Джордан, Джеремия Амур, Грэйс Неттл, Мануэль Пасифик, Дэвид Самартин, Дэвид Дж Биско, Скотт Кокер, Ли Байфорд
[hide][/hide]
Описание:
Самолет терпит крушение в Тихом океане. Затонувший авиалайнер висит на краю пропасти, а выжившие оказываются в западне воздушного кармана. Запас воздуха постепенно заканчивается, и между пассажирами начинается борьба за выживание.

Страна: США
Студия: Altitude Film Entertainment, Hyprr Films, Ingenious Film Partners, Sarma Films
Продолжительность: 01:30:15
Перевод 1: Дублированный | Vox Records
Перевод 2: Профессиональный (двухголосый, закадровый) | ViruseProject | 18 +
Субтитры: Русские, английские

Файл
Формат: Matroska
Качество: WEB-DL 720p | AMZN
Видео: 1280x544 at 23.976 fps, MPEG-4 AVC, ~3224 kbps
Аудио 1: AC3, 6 ch, ~384 kbps - | Русский | Из глубины / No Way Up (2024) WEB-DL 720p от селезень | D, P2 | Vox Records
Аудио 2: AC3, 6 ch, ~640 kbps - | Русский | | ViruseProject
Аудио 3: E-AC3, 6 ch, ~640 kbps - | Английский | | Original
Формат субтитров: softsub (SRT)

Авторизуйтесь для получения доступа к скачиванию

Нет аккаунта? Регистрация открыта и займёт меньше минуты

Вход Регистрация

General
Unique ID: 285155824421480363382708171422309959349 (0xD687039C83C7BC48BA611561EEF646B5)
Complete name: S: No.Way.Up.2024.AMZN.WEB-DL.720p.x264.seleZen.mkv
Format: Matroska
Format version: Version 4
File size: 3.08 GiB
Duration: 1 h 30 min
Overall bit rate: 4 890 kb/s
Frame rate: 23.976 FPS
Movie name: No.Way.Up.2024.AMZN.WEB-DL.720p.x264.seleZen
Encoded date: 29.02.2024 07:33:43 UTC
Writing application: mkvmerge v82.0 ('I’m The President') 64-bit
Writing library: libebml v1.4.5 + libmatroska v1.7.1
Cover: Yes
Attachments: cover.jpg / small_cover.jpg

Video
ID: 1
Format: AVC
Format/Info: Advanced Video Codec
Format profile: [email protected]
Format settings: CABAC / 4 Ref Frames
Format settings, CABAC: Yes
Format settings, Reference: 4 frames
Codec ID: V_MPEG4/ISO/AVC
Duration: 1 h 30 min
Bit rate mode: Constant
Bit rate: 3 224 kb/s
Nominal bit rate: 4 000 kb/s
Width: 1 280 pixels
Height: 544 pixels
Display aspect ratio: 2.35:1
Original display aspect rat: 2.35:1
Frame rate mode: Constant
Frame rate: 23.976 (24000/1001) FPS
Color space: YUV
Chroma subsampling: 4:2:0
Bit depth: 8 bits
Scan type: Progressive
Bits/(Pixel*Frame): 0.193
Stream size: 2.03 GiB (66%)
Title: -=DoMiNo=-
Language: English
Default: Yes
Forced: No
Color range: Limited
Color primaries: BT.709
Transfer characteristics: BT.709
Matrix coefficients: BT.709

Audio #1
ID: 2
Format: AC-3
Format/Info: Audio Coding 3
Commercial name: Dolby Digital
Codec ID: A_AC3
Duration: 1 h 30 min
Bit rate mode: Constant
Bit rate: 384 kb/s
Channel (s): 6 channels
Channel layout: L R C LFE Ls Rs
Sampling rate: 48.0 kHz
Frame rate: 31.250 FPS (1536 SPF)
Compression mode: Lossy
Stream size: 248 MiB (8%)
Title: Дублированный | Vox Records
Language: Russian
Service kind: Complete Main
Default: Yes
Forced: No

Audio #2
ID: 3
Format: AC-3
Format/Info: Audio Coding 3
Commercial name: Dolby Digital
Codec ID: A_AC3
Duration: 1 h 30 min
Bit rate mode: Constant
Bit rate: 640 kb/s
Channel (s): 6 channels
Channel layout: L R C LFE Ls Rs
Sampling rate: 48.0 kHz
Frame rate: 31.250 FPS (1536 SPF)
Compression mode: Lossy
Stream size: 413 MiB (13%)
Title: ViruseProject
Language: Russian
Service kind: Complete Main
Default: No
Forced: No

Audio #3
ID: 4
Format: E-AC-3
Format/Info: Enhanced AC-3
Commercial name: Dolby Digital Plus
Codec ID: A_EAC3
Duration: 1 h 30 min
Bit rate mode: Constant
Bit rate: 640 kb/s
Channel (s): 6 channels
Channel layout: L R C LFE Ls Rs
Sampling rate: 48.0 kHz
Frame rate: 31.250 FPS (1536 SPF)
Compression mode: Lossy
Stream size: 413 MiB (13%)
Language: English
Service kind: Complete Main
Default: No
Forced: No

Text #1
ID: 5
Format: UTF-8
Codec ID: S_TEXT/UTF8
Codec ID/Info: UTF-8 Plain Text
Duration: 1 h 27 min
Bit rate: 53 b/s
Frame rate: 0.183 FPS
Count of elements: 958
Stream size: 34.2 KiB (0%)
Title: Full
Language: Russian
Default: No
Forced: No

Text #2
ID: 6
Format: UTF-8
Codec ID: S_TEXT/UTF8
Codec ID/Info: UTF-8 Plain Text
Duration: 1 h 29 min
Bit rate: 48 b/s
Frame rate: 0.237 FPS
Count of elements: 1274
Stream size: 31.6 KiB (0%)
Title: English
Language: English
Default: No
Forced: No

Text #3
ID: 7
Format: UTF-8
Codec ID: S_TEXT/UTF8
Codec ID/Info: UTF-8 Plain Text
Duration: 1 h 30 min
Bit rate: 52 b/s
Frame rate: 0.293 FPS
Count of elements: 1581
Stream size: 34.8 KiB (0%)
Title: English [SDH]
Language: English
Default: No
Forced: No

Menu
00:00:00.000: en: Chapter 01
00:05:50.000: en: Chapter 02
00:11:40.000: en: Chapter 03
00:17:30.000: en: Chapter 04
00:23:20.000: en: Chapter 05
00:29:10.000: en: Chapter 06
00:35:00.000: en: Chapter 07
00:40:50.000: en: Chapter 08
00:46:40.000: en: Chapter 09
00:52:30.000: en: Chapter 10
00:58:20.000: en: Chapter 11
01:04:10.000: en: Chapter 12
01:10:00.000: en: Chapter 13
01:15:50.000: en: Chapter 14
01:21:40.000: en: Chapter 15
01:27:30.000: en: Chapter 16

Другие фильмы
У данной публикации пока нет комментариев.
Будь первым, оставь своё мнение в комментариях!
Информация
Посетители, находящиеся в группе Гости, не могут оставлять комментарии к данной публикации.
Самый популярный релиз недели
Донаты
Мы в соц. сетях / RSS

Лучшие релизы месяца
Лучшие SD недели
Лучшие 720p недели
Лучшие 1080p недели
Лучшие 4K недели
Вы недавно смотрели
Реклама
Последние комментарии
...

Tony1984

Сегодня, 14:36

...

bolonka123

Вчера, 10:05

...

Sergunka

17 апреля 2024 23:31

...

-=DoMiNo=-

17 апреля 2024 13:52

...

bolonka123

17 апреля 2024 11:43

Реклама