+8

Солнечное побережье / Suncoast (2024) WEB-DL 720p от селезень | D, P

Информация о фильме
Название: Солнечное побережье
Оригинальное название: Suncoast
Жанр: Драма
Год выхода: 2024
Режиссёр: Лаура Кинли
В ролях: Нико Паркер, Лора Линни, Вуди Харрельсон, Даниэлла Перкинс, Элла Андерсон, Амарр Мерритт, Эриель Мартин, Кейла Монтерросо Мейя, Пэм Догерти, Джейсон Бёрки, Андреа Пауэлл, Parker Sack, Law Fox, Эндрю Дикостанцо, Эллиотт Санкрант

Описание:
Дорис - обычная, слегка неуклюжая девочка-подросток. Вместе со своей волевой и постоянно окружённой заботами матерью, она ухаживает за братом, страдающим от серьёзного заболевания. Однако их усилий недостаточно, и мальчика решают поместить в специализированное медицинское учреждение с должным уровнем заботы. Там Дорис заводит неожиданную дружбу со странным активистом, выступающим на протестах, связанных с одним из самых поворотных медицинских случаев в истории.

Производство: США / Freestyle Picture Company, Searchlight Pictures, Seven Deuce Entertainment
Продолжительность: 01:49:41
Перевод 1: Дублированный неофициальный | Condor Films Studio
Перевод 2: Профессиональный (многоголосый, закадровый) | Jaskier
Субтитры: Английские

Файл
Формат: Matroska
Качество: WEB-DL 720p | DSNP
Видео: 1280x720 at 24.000 fps, MPEG-4 AVC, ~2699 kbps
Аудио 1: AC3, 6 ch, ~256 kbps - | Русский | Солнечное побережье / Suncoast (2024) WEB-DL 720p от селезень | D, P | Condor Films Studio
Аудио 2: AC3, 6 ch, ~384 kbps - | Русский | | Jaskier
Аудио 3: E-АС3+Atmos, 6 ch, 768 kbps - | Английский | | Original
Формат субтитров: softsub (SRT)

Авторизуйтесь для получения доступа к скачиванию

Нет аккаунта? Регистрация открыта и займёт меньше минуты

Вход Регистрация

General
Unique ID: 281416614856486214924548267318399073797 (0xD3B6DE58A383BC5145B4897DCFD1FE05)
Complete name: T: Suncoast.2024.DSNP.WEB-DL.720p.x264.seleZen.mkv
Format: Matroska
Format version: Version 4
File size: 3.15 GiB
Duration: 1 h 49 min
Overall bit rate mode: Variable
Overall bit rate: 4 110 kb/s
Frame rate: 24.000 FPS
Movie name: Suncoast.2024.DSNP.WEB-DL.720p.x264.seleZen
Encoded date: 27.02.2024 07:31:53 UTC
Writing application: mkvmerge v82.0 ('I’m The President') 64-bit
Writing library: libebml v1.4.5 + libmatroska v1.7.1
Cover: Yes
Attachments: cover.jpg / small_cover.jpg

Video
ID: 1
Format: AVC
Format/Info: Advanced Video Codec
Format profile: [email protected]
Format settings: CABAC / 4 Ref Frames
Format settings, CABAC: Yes
Format settings, Reference: 4 frames
Codec ID: V_MPEG4/ISO/AVC
Duration: 1 h 49 min
Bit rate mode: Variable
Bit rate: 2 699 kb/s
Maximum bit rate: 6 375 kb/s
Width: 1 280 pixels
Height: 720 pixels
Display aspect ratio: 16:9
Frame rate mode: Constant
Frame rate: 24.000 FPS
Color space: YUV
Chroma subsampling: 4:2:0
Bit depth: 8 bits
Scan type: Progressive
Bits/(Pixel*Frame): 0.122
Time code of first frame: 00:00:00:00
Stream size: 2.07 GiB (66%)
Title: -=DoMiNo=-
Language: English
Default: Yes
Forced: No
Color range: Limited
Color primaries: BT.709
Transfer characteristics: BT.709
Matrix coefficients: BT.709

Audio #1
ID: 2
Format: AC-3
Format/Info: Audio Coding 3
Commercial name: Dolby Digital
Codec ID: A_AC3
Duration: 1 h 49 min
Bit rate mode: Constant
Bit rate: 256 kb/s
Channel (s): 6 channels
Channel layout: L R C LFE Ls Rs
Sampling rate: 48.0 kHz
Frame rate: 31.250 FPS (1536 SPF)
Compression mode: Lossy
Stream size: 201 MiB (6%)
Title: DUB — Condor Films Studio
Language: Russian
Service kind: Complete Main
Default: Yes
Forced: No

Audio #2
ID: 3
Format: AC-3
Format/Info: Audio Coding 3
Commercial name: Dolby Digital
Codec ID: A_AC3
Duration: 1 h 49 min
Bit rate mode: Constant
Bit rate: 384 kb/s
Channel (s): 6 channels
Channel layout: L R C LFE Ls Rs
Sampling rate: 48.0 kHz
Frame rate: 31.250 FPS (1536 SPF)
Compression mode: Lossy
Stream size: 301 MiB (9%)
Title: MVO — Jaskier
Language: Russian
Service kind: Complete Main
Default: No
Forced: No

Audio #3
ID: 4
Format: E-AC-3 JOC
Format/Info: Enhanced AC-3 with Joint Object Coding
Commercial name: Dolby Digital Plus with Dolby Atmos
Codec ID: A_EAC3
Duration: 1 h 49 min
Bit rate mode: Constant
Bit rate: 768 kb/s
Channel (s): 6 channels
Channel layout: L R C LFE Ls Rs
Sampling rate: 48.0 kHz
Frame rate: 31.250 FPS (1536 SPF)
Compression mode: Lossy
Stream size: 603 MiB (19%)
Language: English
Service kind: Complete Main
Default: No
Forced: No
Complexity index: 16
Number of dynamic objects: 15
Bed channel count: 1 channel
Bed channel configuration: LFE

Text #1
ID: 5
Format: UTF-8
Codec ID: S_TEXT/UTF8
Codec ID/Info: UTF-8 Plain Text
Duration: 1 h 41 min
Bit rate: 62 b/s
Frame rate: 0.229 FPS
Count of elements: 1393
Stream size: 46.4 KiB (0%)
Title: Full
Language: English
Default: No
Forced: No

Text #2
ID: 6
Format: UTF-8
Codec ID: S_TEXT/UTF8
Codec ID/Info: UTF-8 Plain Text
Duration: 1 h 42 min
Bit rate: 67 b/s
Frame rate: 0.239 FPS
Count of elements: 1463
Stream size: 50.3 KiB (0%)
Title: SDH
Language: English
Default: No
Forced: No

Menu
00:17:03.250: en: Scene 1
00:28:32.083: en: Scene 2
00:38:37.250: en: Scene 3
00:46:55.000: en: Scene 4
00:58:27.833: en: Scene 5
01:07:36.917: en: Scene 6
01:18:09.417: en: Scene 7
01:26:09.000: en: Scene 8
01:41:30.417: en: Credits

Другие фильмы
У данной публикации пока нет комментариев.
Будь первым, оставь своё мнение в комментариях!
Информация
Посетители, находящиеся в группе Гости, не могут оставлять комментарии к данной публикации.
Самый популярный релиз недели
Донаты
Мы в соц. сетях / RSS

Лучшие релизы месяца
Лучшие SD недели
Лучшие 720p недели
Лучшие 1080p недели
Лучшие 4K недели
Вы недавно смотрели
Реклама
Последние комментарии
...

Tony1984

Сегодня, 14:36

...

bolonka123

Вчера, 10:05

...

Sergunka

17 апреля 2024 23:31

...

-=DoMiNo=-

17 апреля 2024 13:52

...

bolonka123

17 апреля 2024 11:43

Реклама