+1

Шопоголики / Une année difficile / A Difficult Year (2023) WEB-DL 1080p от селезень | D

Информация о фильме
Название: Шопоголики
Оригинальное название: Une année difficile
Год выхода: 2023
Жанр: комедия
Режиссер: Оливье Накаш, Эрик Толедано
В ролях: Пио Мармай, Джонатан Коэн, Ноэми Мерлан, Матьё Амальрик, Грегуар Лепренс-Ренге, Луана Байрами, Сандрин Брияр, Уссама Кеддан, Даниель Лебрюн, Александра Рот

О фильме: Альбер и Брюно - шопоголики, хотя сами себе в этом не признаются. Они просто любят дешевые кредиты, на которые так удобно покупать все на свете. Но у всякого шопоголика рано или поздно наступает кризис, когда еще не распакованные коробки обнаруживают нагрянувшие кредиторы. В этот момент лучше всего залечь на дно. Выбор падает на группу экоактивистов, где, по мнению друзей, можно рассчитывать на бесплатное пиво, чипсы и большую любовь. Не учли они лишь одного: любовь, в отличие от пива, так просто не отпускает.

Страна: Франция
Студия: Canal+ [fr], Centre National du Cinéma, Ciné, Cinémage 14 Développement, Cinémage 17, Gaumont, Go-T?bun no Hanayome Production Committee, GYAO Corporation, Indéfilms 11, Palatine Étoile 20, Quad, SofiTVcin? 10, Ten Cinéma, TF1, TF1 Films Production
Продолжительность: 01:59:44
Перевод: Дублированный | Пифагор

Качество: WEB-DL 1080p
Видео: MPEG-4 AVC, 1920x804, 3202 Kbit/s, 24.000 fps
Аудио #01: 48 kHz, AC3, 5.1, 384 Kbps | Дублированный | Пифагор | RUS |Шопоголики / Une année difficile / A Difficult Year (2023) WEB-DL 1080p от селезень | D
Аудио #02: 48 kHz, E-AC3, 5.1, 384 Kbps | Дублированный | Пифагор | RUS |
Аудио #03: 48 kHz, E-AC3, 5.1, 448 Kbps | Оригинал | FRE |
Субтитры: Русские (Forced, full)

Шопоголики / Une année difficile / A Difficult Year (2023) WEB-DL 1080p от селезень | D

Авторизуйтесь для получения доступа к скачиванию

Нет аккаунта? Регистрация открыта и займёт меньше минуты

Вход Регистрация

General
Unique ID : 289783791762285352966868846146603801937 (0xDA0254049B8A369EBA361A3BD9215D51)
Complete name : H:\VideoH\Une.anne.difficile.2023.WEB-DL.1080p.seleZen.mkv
Format : Matroska
Format version : Version 4
File size : 3.70 GiB
Duration : 1 h 59 min
Overall bit rate : 4 421 kb/s
Frame rate : 24.000 FPS
Movie name : Une année difficile a.k.a A Difficult Year 2023 from seleZen
Encoded date : 2024-02-27 21:48:52 UTC
Writing application : mkvmerge v80.0 ('Roundabout') 64-bit
Writing library : libebml v1.4.4 + libmatroska v1.7.1

Video
ID : 1
Format : AVC
Format/Info : Advanced Video Codec
Format profile : Progressive High@L4
Format settings : CABAC / 5 Ref Frames
Format settings, CABAC : Yes
Format settings, Reference : 5 frames
Codec ID : V_MPEG4/ISO/AVC
Duration : 1 h 59 min
Bit rate : 3 202 kb/s
Width : 1 920 pixels
Height : 804 pixels
Display aspect ratio : 2.39:1
Frame rate mode : Constant
Frame rate : 24.000 FPS
Color space : YUV
Chroma subsampling : 4:2:0
Bit depth : 8 bits
Scan type : Progressive
Bits/(Pixel*Frame) : 0.086
Stream size : 2.68 GiB (72%)
Writing library : x264 core 157
Encoding settings : cabac=1 / ref=5 / deblock=1:0:0 / analyse=0x3:0x133 / me=umh / subme=10 / psy=1 / psy_rd=1.00:0.00 / mixed_ref=1 / me_range=24 / chroma_me=1 / trellis=2 / 8x8dct=1 / cqm=0 / deadzone=21,11 / fast_pskip=1 / chroma_qp_offset=-2 / threads=25 / lookahead_threads=4 / sliced_threads=0 / nr=0 / decimate=1 / interlaced=0 / bluray_compat=0 / stitchable=1 / constrained_intra=0 / bframes=8 / b_pyramid=2 / b_adapt=2 / b_bias=0 / direct=3 / weightb=1 / open_gop=0 / weightp=2 / keyint=250 / keyint_min=24 / scenecut=40 / intra_refresh=0 / rc_lookahead=96 / rc=crf / mbtree=1 / crf=16.0 / qcomp=0.60 / qpmin=0 / qpmax=69 / qpstep=4 / ip_ratio=1.40 / aq=1:1.00
Language : French
Default : Yes
Forced : No

Audio #1
ID : 2
Format : AC-3
Format/Info : Audio Coding 3
Commercial name : Dolby Digital
Codec ID : A_AC3
Duration : 1 h 59 min
Bit rate mode : Constant
Bit rate : 384 kb/s
Channel(s) : 6 channels
Channel layout : L R C LFE Ls Rs
Sampling rate : 48.0 kHz
Frame rate : 31.250 FPS (1536 SPF)
Compression mode : Lossy
Stream size : 329 MiB (9%)
Title : Dub
Language : Russian
Service kind : Complete Main
Default : Yes
Forced : No

Audio #2
ID : 3
Format : E-AC-3
Format/Info : Enhanced AC-3
Commercial name : Dolby Digital Plus
Codec ID : A_EAC3
Duration : 1 h 59 min
Bit rate mode : Constant
Bit rate : 384 kb/s
Channel(s) : 6 channels
Channel layout : L R C LFE Ls Rs
Sampling rate : 48.0 kHz
Frame rate : 31.250 FPS (1536 SPF)
Compression mode : Lossy
Stream size : 329 MiB (9%)
Title : Dub
Language : Russian
Service kind : Complete Main
Default : No
Forced : No

Audio #3
ID : 4
Format : E-AC-3
Format/Info : Enhanced AC-3
Commercial name : Dolby Digital Plus
Codec ID : A_EAC3
Duration : 1 h 59 min
Bit rate mode : Constant
Bit rate : 448 kb/s
Channel(s) : 6 channels
Channel layout : L R C LFE Ls Rs
Sampling rate : 48.0 kHz
Frame rate : 31.250 FPS (1536 SPF)
Bit depth : 32 bits
Compression mode : Lossy
Stream size : 384 MiB (10%)
Title : Original
Language : French
Service kind : Complete Main
Default : No
Forced : No

Text #1
ID : 5
Format : UTF-8
Codec ID : S_TEXT/UTF8
Codec ID/Info : UTF-8 Plain Text
Duration : 1 h 3 min
Bit rate : 0 b/s
Frame rate : 0.002 FPS
Count of elements : 9
Stream size : 316 Bytes (0%)
Title : Forced
Language : Russian
Default : Yes
Forced : No

Text #2
ID : 6
Format : UTF-8
Codec ID : S_TEXT/UTF8
Codec ID/Info : UTF-8 Plain Text
Duration : 1 h 58 min
Bit rate : 110 b/s
Frame rate : 0.294 FPS
Count of elements : 2087
Stream size : 95.6 KiB (0%)
Title : Full
Language : Russian
Default : No
Forced : No

Другие фильмы
У данной публикации пока нет комментариев.
Будь первым, оставь своё мнение в комментариях!
Информация
Посетители, находящиеся в группе Гости, не могут оставлять комментарии к данной публикации.
Самый популярный релиз недели
Донаты
Мы в соц. сетях / RSS

Лучшие релизы месяца
Лучшие SD недели
Лучшие 720p недели
Лучшие 1080p недели
Лучшие 4K недели
Вы недавно смотрели
Реклама
Последние комментарии
...

Tony1984

Сегодня, 14:36

...

bolonka123

Вчера, 10:05

...

Sergunka

17 апреля 2024 23:31

...

-=DoMiNo=-

17 апреля 2024 13:52

...

bolonka123

17 апреля 2024 11:43

Реклама