+6

Свободные / Footloose (1984) UHD BDRemux 2160p от селезень | 4K | HDR | Dolby Vision Profile 8 | P2

Информация о фильме
Название: Свободные
Оригинальное название: Footloose
Год выхода: 1984
Жанр: драма, мелодрама, музыка
Режиссер: Херберт Росс
В ролях: Кевин Бейкон, Лори Сингер, Джон Литгоу, Дайэнн Уист, Крис Пенн, Сара Джессика Паркер, Джон Лофлин, Элизабет Горси, Фрэнсис Ли МакКейн, Джим Янгс

О фильме: Заручившись поддержкой своего приятеля и юной возлюбленной, юный бунтарь Рен МакКормак решает изменить старомодные порядки, установленные преподобным отцом Муром и заставить благочестивых горожан «тряхнуть стариной».

Страна: США
Студия: IndieProd Company Productions, Paramount Pictures, Phoenix Pictures
Продолжительность: 01:47:13
Перевод: Профессиональный двухголосый | Эльром

Качество: BDRemux 2160p
Видео: 3840x2160 at 23.976 fps, MPEG-H HEVC SDR Video, 56900 kbps
Аудио #01: 48 kHz, AC3, 2.0, 192 Kbps | Профессиональный двухголосый | Эльром | RUS |Свободные / Footloose (1984) UHD BDRemux 2160p от селезень | 4K | HDR | Dolby Vision Profile 8 | P2
Аудио #02: 48 kHz, DTS-HD MA, 5.1, 3777 Kbps | Оригинал | ENG |
Субтитры: Русские, Английские

Свободные / Footloose (1984) UHD BDRemux 2160p от селезень | 4K | HDR | Dolby Vision Profile 8 | P2

Авторизуйтесь для получения доступа к скачиванию

Нет аккаунта? Регистрация открыта и займёт меньше минуты

Вход Регистрация

General
Unique ID : 326373856998076751568916126549980828326 (0xF58951845A0362AD852B6186062952A6)
Complete name : H:\VideoH\Footloose.1984.BDREMUX.2160p.HDR.DVP8.seleZen.mkv
Format : Matroska
Format version : Version 4
File size : 45.6 GiB
Duration : 1 h 47 min
Overall bit rate mode : Variable
Overall bit rate : 60.8 Mb/s
Frame rate : 23.976 FPS
Movie name : Footloose (1984) from seleZen
Encoded date : 2024-03-04 01:32:11 UTC
Writing application : mkvmerge v80.0 ('Roundabout') 64-bit
Writing library : libebml v1.4.4 + libmatroska v1.7.1

Video
ID : 1
ID in the original source m : 4117 (0x1015)
Format : HEVC
Format/Info : High Efficiency Video Coding
Format profile : Main [email protected]@High
HDR format : Dolby Vision, Version 1.0, dvhe.08.06, BL+RPU, Blu-ray compatible / SMPTE ST 2086, HDR10 compatible
Codec ID : V_MPEGH/ISO/HEVC
Duration : 1 h 47 min
Bit rate : 56.9 Mb/s
Width : 3 840 pixels
Height : 2 160 pixels
Display aspect ratio : 16:9
Frame rate mode : Constant
Frame rate : 23.976 (24000/1001) FPS
Color space : YUV
Chroma subsampling : 4:2:0 (Type 2)
Bit depth : 10 bits
Bits/(Pixel*Frame) : 0.286
Stream size : 42.6 GiB (93%)
Language : English
Default : No
Forced : No
Color range : Limited
Color primaries : BT.2020
Transfer characteristics : PQ
Matrix coefficients : BT.2020 non-constant
Mastering display color pri : Display P3
Mastering display luminance : min: 0.0001 cd/m2, max: 1000 cd/m2
Maximum Content Light Level : 1000 cd/m2
Maximum Frame-Average Light : 146 cd/m2
Original source medium : Blu-ray

Audio #1
ID : 2
Format : AC-3
Format/Info : Audio Coding 3
Commercial name : Dolby Digital
Codec ID : A_AC3
Duration : 1 h 47 min
Bit rate mode : Constant
Bit rate : 192 kb/s
Channel(s) : 2 channels
Channel layout : L R
Sampling rate : 48.0 kHz
Frame rate : 31.250 FPS (1536 SPF)
Compression mode : Lossy
Stream size : 147 MiB (0%)
Title : MVO_Эльром
Language : Russian
Service kind : Complete Main
Default : Yes
Forced : No

Audio #2
ID : 3
Format : DTS XLL
Format/Info : Digital Theater Systems
Commercial name : DTS-HD Master Audio
Codec ID : A_DTS
Duration : 1 h 47 min
Bit rate mode : Variable
Bit rate : 3 777 kb/s
Channel(s) : 6 channels
Channel layout : C L R Ls Rs LFE
Sampling rate : 48.0 kHz
Frame rate : 93.750 FPS (512 SPF)
Bit depth : 24 bits
Compression mode : Lossless
Stream size : 2.83 GiB (6%)
Title : Original
Language : English
Default : No
Forced : No

Text #1
ID : 4
Format : UTF-8
Codec ID : S_TEXT/UTF8
Codec ID/Info : UTF-8 Plain Text
Duration : 1 h 45 min
Bit rate : 94 b/s
Frame rate : 0.206 FPS
Count of elements : 1310
Stream size : 73.1 KiB (0%)
Title : Full
Language : Russian
Default : No
Forced : No

Text #2
ID : 5
Format : UTF-8
Codec ID : S_TEXT/UTF8
Codec ID/Info : UTF-8 Plain Text
Duration : 1 h 46 min
Bit rate : 74 b/s
Frame rate : 0.272 FPS
Count of elements : 1744
Stream size : 58.5 KiB (0%)
Title : SDH
Language : English
Default : No
Forced : No

Menu
00:00:00.000 : en:Глава 01
00:02:35.947 : en:Глава 02
00:13:30.184 : en:Глава 03
00:22:46.991 : en:Глава 04
00:32:42.460 : en:Глава 05
00:44:12.525 : en:Глава 06
00:58:50.444 : en:Глава 07
01:10:56.752 : en:Глава 08
01:22:05.212 : en:Глава 09
01:28:12.329 : en:Глава 10
01:32:57.363 : en:Глава 11
01:39:45.646 : en:Глава 12
01:43:47.680 : en:Глава 13

Другие фильмы
У данной публикации пока нет комментариев.
Будь первым, оставь своё мнение в комментариях!
Информация
Посетители, находящиеся в группе Гости, не могут оставлять комментарии к данной публикации.
Самый популярный релиз недели
Донаты
Мы в соц. сетях / RSS

Лучшие релизы месяца
Лучшие SD недели
Лучшие 720p недели
Лучшие 1080p недели
Лучшие 4K недели
Вы недавно смотрели
Реклама
Последние комментарии
...

Tony1984

Сегодня, 14:36

...

bolonka123

Вчера, 10:05

...

Sergunka

17 апреля 2024 23:31

...

-=DoMiNo=-

17 апреля 2024 13:52

...

bolonka123

17 апреля 2024 11:43

Реклама