+3

Вся жизнь / Ein ganzes Leben / A Whole Life (2023) BDRip 1080p от селезень | P

Информация о фильме
Название: Вся жизнь
Оригинальное название: Ein ganzes Leben
Год выхода: 2023
Жанр: драма
Режиссер: Ханс Штайнбихлер
В ролях: Stefan Gorski, Август Цирнер, Ivan Gustafik, Андреас Луст, Юлия Франц Рихтер, Мария Хофштаттер, Марианна Зёгебрехт, Роберт Штадлобер, Томас Шуберт, Лукас Вальхер

О фильме: Начало 20 века. Юный сирота Андреас Эггер попадает на ферму в Альпах, где он проведёт большую часть своей жизни, столкнётся с бедностью, войной и жестокостью, но испытает моменты настоящего счастья.

Осиротевшего мальчика привозят к родственникам в горную деревню. Суровый дядя разрешает ему остаться, но жестоко избивает ребёнка за малейшую провинность. Парень привыкает усердно работать и не падать духом. В течение следующих нескольких десятилетий Андреас строит свой дом, встречает любовь, переживает войну и личную трагедию.


Страна: Австрия, Германия
Студия: Cine Tirol, EPO-Film-Produktionsges.m.b.H., FFF Bayern, German Film Fund, Tobis Filmproduktion M?nchen
Продолжительность: 01:55:28
Перевод: Профессиональный многоголосый | OKKO

Качество: BDRip 1080p
Видео: MPEG-4 AVC, 1920x804, 12.0 Mbit/s, 24.000 fps
Аудио #01: 48 kHz, AC3, 5.1, 384 Kbps | Профессиональный многоголосый | OKKO | RUS |Вся жизнь / Ein ganzes Leben / A Whole Life (2023) BDRip 1080p от селезень | P
Аудио #02: 48 kHz, E-AC3, 5.1, 384 Kbps | Профессиональный многоголосый | OKKO | RUS |
Аудио #03: 48 kHz, AC3, 5.1, 640 Kbps | Оригинал | GER |
Субтитры: Русские (Full), английские, немецкие

Вся жизнь / Ein ganzes Leben / A Whole Life (2023) BDRip 1080p от селезень | P

Авторизуйтесь для получения доступа к скачиванию

Нет аккаунта? Регистрация открыта и займёт меньше минуты

Вход Регистрация

General
Unique ID : 246304801157899874343157849346294335899 (0xB94C94466D5F4C560B0C866D2622C99B)
Complete name : H:\VideoH\Ein.ganzes.Leben.AKA.A.Whole.Life.2023.BDRip.1080p.seleZen.mkv
Format : Matroska
Format version : Version 4
File size : 10.8 GiB
Duration : 1 h 55 min
Overall bit rate : 13.3 Mb/s
Frame rate : 24.000 FPS
Movie name : Ein ganzes Leben AKA A Whole Life (2023) from seleZen
Encoded date : 2024-03-29 04:57:23 UTC
Writing application : mkvmerge v80.0 ('Roundabout') 64-bit
Writing library : libebml v1.4.4 + libmatroska v1.7.1

Video
ID : 1
Format : AVC
Format/Info : Advanced Video Codec
Format profile : [email protected]
Format settings : CABAC / 5 Ref Frames
Format settings, CABAC : Yes
Format settings, Reference : 5 frames
Codec ID : V_MPEG4/ISO/AVC
Duration : 1 h 55 min
Bit rate : 12.0 Mb/s
Width : 1 920 pixels
Height : 804 pixels
Display aspect ratio : 2.39:1
Frame rate mode : Constant
Frame rate : 24.000 FPS
Color space : YUV
Chroma subsampling : 4:2:0
Bit depth : 8 bits
Scan type : Progressive
Bits/(Pixel*Frame) : 0.324
Stream size : 9.62 GiB (89%)
Title : chr00t
Writing library : x264 core 164 r3107 a8b68ebf
Encoding settings : cabac=1 / ref=5 / deblock=1:-2:-1 / analyse=0x3:0x133 / me=umh / subme=10 / psy=1 / psy_rd=1.00:0.00 / mixed_ref=1 / me_range=32 / chroma_me=1 / trellis=2 / 8x8dct=1 / cqm=0 / deadzone=21,11 / fast_pskip=0 / chroma_qp_offset=-2 / threads=25 / lookahead_threads=2 / sliced_threads=0 / nr=0 / decimate=0 / interlaced=0 / bluray_compat=0 / constrained_intra=0 / bframes=3 / b_pyramid=2 / b_adapt=2 / b_bias=0 / direct=3 / weightb=1 / open_gop=0 / weightp=2 / keyint=240 / keyint_min=24 / scenecut=40 / intra_refresh=0 / rc_lookahead=240 / rc=2pass / mbtree=0 / bitrate=12000 / ratetol=1.0 / qcomp=0.60 / qpmin=0 / qpmax=69 / qpstep=4 / cplxblur=20.0 / qblur=0.5 / vbv_maxrate=62500 / vbv_bufsize=78125 / nal_hrd=none / filler=0 / ip_ratio=1.30 / pb_ratio=1.20 / aq=3:0.80
Language : German
Default : Yes
Forced : No
Color range : Limited
Color primaries : BT.709
Transfer characteristics : BT.709
Matrix coefficients : BT.709

Audio #1
ID : 2
Format : AC-3
Format/Info : Audio Coding 3
Commercial name : Dolby Digital
Codec ID : A_AC3
Duration : 1 h 55 min
Bit rate mode : Constant
Bit rate : 384 kb/s
Channel(s) : 6 channels
Channel layout : L R C LFE Ls Rs
Sampling rate : 48.0 kHz
Frame rate : 31.250 FPS (1536 SPF)
Compression mode : Lossy
Stream size : 317 MiB (3%)
Language : Russian
Service kind : Complete Main
Default : Yes
Forced : No

Audio #2
ID : 3
Format : E-AC-3
Format/Info : Enhanced AC-3
Commercial name : Dolby Digital Plus
Codec ID : A_EAC3
Duration : 1 h 55 min
Bit rate mode : Constant
Bit rate : 384 kb/s
Channel(s) : 6 channels
Channel layout : L R C LFE Ls Rs
Sampling rate : 48.0 kHz
Frame rate : 31.250 FPS (1536 SPF)
Compression mode : Lossy
Stream size : 317 MiB (3%)
Language : Russian
Service kind : Complete Main
Default : No
Forced : No

Audio #3
ID : 4
Format : AC-3
Format/Info : Audio Coding 3
Commercial name : Dolby Digital
Codec ID : A_AC3
Duration : 1 h 55 min
Bit rate mode : Constant
Bit rate : 640 kb/s
Channel(s) : 6 channels
Channel layout : L R C LFE Ls Rs
Sampling rate : 48.0 kHz
Frame rate : 31.250 FPS (1536 SPF)
Compression mode : Lossy
Stream size : 529 MiB (5%)
Language : German
Service kind : Complete Main
Default : No
Forced : No

Text #1
ID : 5
Format : UTF-8
Codec ID : S_TEXT/UTF8
Codec ID/Info : UTF-8 Plain Text
Duration : 1 h 50 min
Bit rate : 31 b/s
Frame rate : 0.097 FPS
Count of elements : 640
Stream size : 25.7 KiB (0%)
Language : Russian
Default : No
Forced : No

Text #2
ID : 6
Format : UTF-8
Codec ID : S_TEXT/UTF8
Codec ID/Info : UTF-8 Plain Text
Duration : 1 h 54 min
Bit rate : 29 b/s
Frame rate : 0.135 FPS
Count of elements : 928
Stream size : 24.5 KiB (0%)
Title : German
Language : German
Default : No
Forced : No

Text #3
ID : 7
Format : UTF-8
Codec ID : S_TEXT/UTF8
Codec ID/Info : UTF-8 Plain Text
Duration : 1 h 54 min
Bit rate : 18 b/s
Frame rate : 0.090 FPS
Count of elements : 620
Stream size : 15.4 KiB (0%)
Title : English
Language : English
Default : No
Forced : No

Menu
00:00:00.000 : Chapter 01
00:10:57.333 : Chapter 02
00:19:20.000 : Chapter 03
00:29:36.208 : Chapter 04
00:39:43.542 : Chapter 05
00:50:15.833 : Chapter 06
01:01:12.208 : Chapter 07
01:10:17.625 : Chapter 08
01:19:42.667 : Chapter 09
01:29:42.625 : Chapter 10
01:39:36.708 : Chapter 11
01:51:24.542 : Chapter 12
01:55:28.083 : Chapter 13

Другие фильмы
У данной публикации пока нет комментариев.
Будь первым, оставь своё мнение в комментариях!
Информация
Посетители, находящиеся в группе Гости, не могут оставлять комментарии к данной публикации.
Самый популярный релиз недели
Донаты
Мы в соц. сетях / RSS

Лучшие релизы месяца
Лучшие SD недели
Лучшие 720p недели
Лучшие 1080p недели
Лучшие 4K недели
Вы недавно смотрели
Реклама
Последние комментарии
...

Tony1984

Сегодня, 14:36

...

bolonka123

Вчера, 10:05

...

Sergunka

17 апреля 2024 23:31

...

-=DoMiNo=-

17 апреля 2024 13:52

...

bolonka123

17 апреля 2024 11:43

Реклама