+19

Кунг-фу Панда 4 / Kung Fu Panda 4 (2024) WEBRip-AVC от DoMiNo & селезень | D

Информация о фильме
Название: Кунг-фу Панда 4
Оригинальное название: Kung Fu Panda 4
Год выхода: 2024
Жанр: Мультфильм, фэнтези, боевик, комедия, приключения, семейный
Режиссер: Майк Митчелл, Стефани Стайн
В ролях: Джек Блэк, Аквафина, Виола Дэвис, Дастин Хоффман, Брайан Крэнстон, Джеймс Хун, Иэн Макшейн, Ке Хюи Куан, Ронни Чиэн, Лори Тань Чинн

О фильме:
Продолжение приключений легендарного Воина Дракона, его верных друзей и наставника.

Страна: США, Китай
Студия: DreamWorks Animation, DreamWorks SKG, Universal Pictures
Продолжительность: 01:29:50
Перевод: Дублированный
Примечание: Панду озвучивает Михаил Галустян

Файл
Формат: Matroska
Качество: WEBRip-AVC
Видео: 1024×428 at 23.976 fps, [email protected], ~1804 kbps
Аудио: AC3, 6 ch, ~448 kbps — | Русский | Кунг-фу Панда 4 / Kung Fu Panda 4 (2024) WEBRip-AVC от DoMiNo & селезень | D
Субтитры: Отсутствуют

Авторизуйтесь для получения доступа к скачиванию

Нет аккаунта? Регистрация открыта и займёт меньше минуты

Вход Регистрация

General
Unique ID : 51988277267664115095120390147996208134 (0x271C93F775C30BF01F5353E095C14C06)
Complete name : I:Kung.Fu.Panda.4.2024.DUB.WEB-DLRip.x264.seleZen.mkv
Format : Matroska
Format version : Version 4
File size : 1.41 GiB
Duration : 1 h 29 min
Overall bit rate : 2 254 kb/s
Frame rate : 24.000 FPS
Movie name : Kung.Fu.Panda.4.2024.DUB.WEB-DLRip.x264.seleZen
Encoded date : 2024-03-30 20:02:49 UTC
Writing application : mkvmerge v83.0 ('Circle Of Friends') 64-bit
Writing library : libebml v1.4.5 + libmatroska v1.7.1
Cover : Yes
Attachments : cover.jpg / small_cover.jpg

Video
ID : 1
Format : AVC
Format/Info : Advanced Video Codec
Format profile : [email protected]
Format settings : CABAC / 10 Ref Frames
Format settings, CABAC : Yes
Format settings, Reference : 10 frames
Codec ID : V_MPEG4/ISO/AVC
Duration : 1 h 29 min
Bit rate : 1 804 kb/s
Width : 1 024 pixels
Height : 428 pixels
Display aspect ratio : 2.40:1
Frame rate mode : Constant
Frame rate : 24.000 FPS
Color space : YUV
Chroma subsampling : 4:2:0
Bit depth : 8 bits
Scan type : Progressive
Bits/(Pixel*Frame) : 0.172
Stream size : 1.13 GiB (80%)
Title : -=DoMiNo=-
Writing library : x264 core 164 r3190 -DoMiNo
Encoding settings : cabac=1 / ref=10 / deblock=1:-1:-1 / analyse=0x3:0x133 / me=umh / subme=10 / psy=1 / psy_rd=1.00:0.20 / mixed_ref=1 / me_range=32 / chroma_me=1 / trellis=2 / 8x8dct=1 / cqm=0 / deadzone=21,11 / fast_pskip=0 / chroma_qp_offset=-3 / threads=13 / lookahead_threads=2 / sliced_threads=0 / nr=0 / decimate=0 / interlaced=0 / bluray_compat=0 / constrained_intra=0 / bframes=8 / b_pyramid=2 / b_adapt=2 / b_bias=0 / direct=1 / weightb=1 / open_gop=0 / weightp=2 / keyint=240 / keyint_min=24 / scenecut=40 / intra_refresh=0 / rc_lookahead=60 / rc=crf / mbtree=0 / crf=19.3 / qcomp=0.60 / qpmin=0 / qpmax=69 / qpstep=4 / vbv_maxrate=50000 / vbv_bufsize=62500 / crf_max=0.0 / nal_hrd=none / filler=0 / ip_ratio=1.40 / pb_ratio=1.30 / aq=1:1.10
Language : English
Default : Yes
Forced : No
Color range : Limited
Color primaries : BT.709
Transfer characteristics : BT.709
Matrix coefficients : BT.709

Audio
ID : 2
Format : AC-3
Format/Info : Audio Coding 3
Commercial name : Dolby Digital
Codec ID : A_AC3
Duration : 1 h 29 min
Bit rate mode : Constant
Bit rate : 448 kb/s
Channel(s) : 6 channels
Channel layout : L R C LFE Ls Rs
Sampling rate : 48.0 kHz
Frame rate : 31.250 FPS (1536 SPF)
Compression mode : Lossy
Delay relative to video : 27 ms
Stream size : 288 MiB (20%)
Title : Dub
Language : Russian
Service kind : Complete Main
Default : Yes
Forced : No

Menu
00:00:00.000 : en:Chapter 01
00:05:50.000 : en:Chapter 02
00:11:40.000 : en:Chapter 03
00:17:30.000 : en:Chapter 04
00:23:20.000 : en:Chapter 05
00:29:10.000 : en:Chapter 06
00:35:00.000 : en:Chapter 07
00:40:50.000 : en:Chapter 08
00:46:40.000 : en:Chapter 09
00:52:30.000 : en:Chapter 10
00:58:20.000 : en:Chapter 11
01:04:10.000 : en:Chapter 12
01:10:00.000 : en:Chapter 13
01:15:50.000 : en:Chapter 14
01:21:40.000 : en:Chapter 15
01:27:30.000 : en:Chapter 16

Другие фильмы
У данной публикации пока нет комментариев.
Будь первым, оставь своё мнение в комментариях!
Информация
Посетители, находящиеся в группе Гости, не могут оставлять комментарии к данной публикации.
Самый популярный релиз недели
Донаты
Мы в соц. сетях / RSS

Лучшие релизы месяца
Лучшие SD недели
Лучшие 720p недели
Лучшие 1080p недели
Лучшие 4K недели
Вы недавно смотрели
Реклама
Последние комментарии
...

Tony1984

Сегодня, 14:36

...

bolonka123

Вчера, 10:05

...

Sergunka

17 апреля 2024 23:31

...

-=DoMiNo=-

17 апреля 2024 13:52

...

bolonka123

17 апреля 2024 11:43

Реклама