+18

Злобные маленькие письма / Wicked Little Letters (2023) BDRip 720p от DoMiNo & селезень | P, A

Информация о фильме
Название: Злобные маленькие письма
Оригинальное название: Wicked Little Letters
Год выпуска: 2023
Жанр: комедия, драма, детектив, криминал, история
Режиссер: Теа Шэррок / Thea Sharrock
В ролях: Оливия Колман, Джесси Бакли, Тимоти Сполл, Хью Скиннер, Анджана Васан, Джемма Джонс, Лолли Адефоп, Эйлин Аткинс, Джейсон Уоткинс, Джоанна Скэнлан, Малачи Кирби, Сьюзи Фэйрфакс, Алиша Уэйр, Ричард Гулдинг.

О фильме:
Англия после окончания Первой мировой войны. В маленьком городке Литлхэмптон неизвестный злоумышленник регулярно отправляет набожной женщине Идит Суон оскорбительные письма, содержащие нецензурную брань. После получения 19-го письма отец Идит не выдерживает и обращается в полицию, утверждая, что знает отправителя. Главной подозреваемой становится, недавно переехавшая с дочерью из Ирландии, молодая, вспыльчивая, прямолинейная и грубоватая женщина Роуз Гудинг, известная своим развязным поведением и постоянным использованием бранных слов.

Выпущено: Великобритания, США, Франция / Blueprint Pictures, Film Four Ltd.
Продолжительность: 01:40:05
Перевод 1: Профессиональный (многоголосый, закадровый) | TVShows
Перевод 2: Авторский (одноголосый, закадровый) | Ю. Сербин 18 +
Субтитры: Русские (full), английские (Full, SDH)

Файл
Формат: Matroska
Качество: BDRip 720p
Видео: 1280x692 at 24.000 fps, MPEG-4 AVC, ~4947 kbps
Аудио 1: AC3, 6 ch, ~448 kbps - | Русский | Злобные маленькие письма / Wicked Little Letters (2023) BDRip 720p от DoMiNo & селезень | P, A | TVShows
Аудио 2: AC3, 6 ch, ~384 kbps - | Русский | | Ю. Сербин
Аудио 3: AC3, 6 ch, ~640 kbps - | Английский | | Original
Формат субтитров: softsub (SRT)

Авторизуйтесь для получения доступа к скачиванию

Нет аккаунта? Регистрация открыта и займёт меньше минуты

Вход Регистрация

x264 [info]: frame I:1465 Avg QP:13.64 size:147715
x264 [info]: frame P:28395 Avg QP:14.91 size: 51806
x264 [info]: frame B:114278 Avg QP:17.11 size: 17733

General
Unique ID : 306961714732859327646790703015185805388 (0xE6EEAD02700E518AEC15E5CED6B2F04C)
Complete name : T:Wicked.Little.Letters.2023.BDRip.720p.x264.seleZen.mkv
Format : Matroska
Format version : Version 4
File size : 4.49 GiB
Duration : 1 h 40 min
Overall bit rate : 6 422 kb/s
Frame rate : 24.000 FPS
Movie name : Wicked.Little.Letters.2023.BDRip.720p.x264.seleZen
Encoded date : 2024-06-08 17:04:55 UTC
Writing application : mkvmerge v85.0 ('Shame For You') 64-bit
Writing library : libebml v1.4.5 + libmatroska v1.7.1
Cover : Yes
Attachments : cover.jpg / small_cover.jpg

Video
ID : 1
Format : AVC
Format/Info : Advanced Video Codec
Format profile : [email protected]
Format settings : CABAC / 9 Ref Frames
Format settings, CABAC : Yes
Format settings, Reference : 9 frames
Codec ID : V_MPEG4/ISO/AVC
Duration : 1 h 40 min
Bit rate : 4 947 kb/s
Width : 1 280 pixels
Height : 692 pixels
Display aspect ratio : 1.85:1
Frame rate mode : Constant
Frame rate : 24.000 FPS
Color space : YUV
Chroma subsampling : 4:2:0
Bit depth : 8 bits
Scan type : Progressive
Bits/(Pixel*Frame) : 0.233
Stream size : 3.46 GiB (77%)
Title : -=DoMiNo=-
Writing library : x264 core 164 r3191 4613ac3
Encoding settings : cabac=1 / ref=9 / deblock=1:-2:-2 / analyse=0x3:0x133 / me=umh / subme=10 / psy=1 / psy_rd=1.05:0.05 / mixed_ref=1 / me_range=32 / chroma_me=1 / trellis=2 / 8x8dct=1 / cqm=0 / deadzone=21,11 / fast_pskip=0 / chroma_qp_offset=-3 / threads=22 / lookahead_threads=5 / sliced_threads=0 / nr=0 / decimate=1 / interlaced=0 / bluray_compat=0 / constrained_intra=0 / bframes=12 / b_pyramid=2 / b_adapt=2 / b_bias=0 / direct=3 / weightb=1 / open_gop=0 / weightp=2 / keyint=240 / keyint_min=24 / scenecut=40 / intra_refresh=0 / rc_lookahead=60 / rc=crf / mbtree=0 / crf=16.8 / qcomp=0.60 / qpmin=0 / qpmax=69 / qpstep=4 / vbv_maxrate=50000 / vbv_bufsize=62500 / crf_max=0.0 / nal_hrd=none / filler=0 / ip_ratio=1.40 / pb_ratio=1.30 / aq=3:0.80
Language : English
Default : Yes
Forced : No
Color range : Limited
Color primaries : BT.709
Transfer characteristics : BT.709
Matrix coefficients : BT.709

Audio #1
ID : 2
Format : AC-3
Format/Info : Audio Coding 3
Commercial name : Dolby Digital
Codec ID : A_AC3
Duration : 1 h 40 min
Bit rate mode : Constant
Bit rate : 448 kb/s
Channel(s) : 6 channels
Channel layout : L R C LFE Ls Rs
Sampling rate : 48.0 kHz
Frame rate : 31.250 FPS (1536 SPF)
Compression mode : Lossy
Stream size : 321 MiB (7%)
Title : MVO -TVShows
Language : Russian
Service kind : Complete Main
Default : Yes
Forced : No
Dialog Normalization : -31 dB
cmixlev : -4.5 dB
surmixlev : -6 dB
dialnorm_Average : -31 dB
dialnorm_Minimum : -31 dB
dialnorm_Maximum : -31 dB

Audio #2
ID : 3
Format : AC-3
Format/Info : Audio Coding 3
Commercial name : Dolby Digital
Codec ID : A_AC3
Duration : 1 h 40 min
Bit rate mode : Constant
Bit rate : 384 kb/s
Channel(s) : 6 channels
Channel layout : L R C LFE Ls Rs
Sampling rate : 48.0 kHz
Frame rate : 31.250 FPS (1536 SPF)
Compression mode : Lossy
Stream size : 275 MiB (6%)
Title : AVO -Сербин 18+
Language : Russian
Service kind : Complete Main
Default : No
Forced : No
Dialog Normalization : -31 dB
cmixlev : -4.5 dB
surmixlev : -6 dB
dialnorm_Average : -31 dB
dialnorm_Minimum : -31 dB
dialnorm_Maximum : -31 dB

Audio #3
ID : 4
Format : AC-3
Format/Info : Audio Coding 3
Commercial name : Dolby Digital
Codec ID : A_AC3
Duration : 1 h 40 min
Bit rate mode : Constant
Bit rate : 640 kb/s
Channel(s) : 6 channels
Channel layout : L R C LFE Ls Rs
Sampling rate : 48.0 kHz
Frame rate : 31.250 FPS (1536 SPF)
Compression mode : Lossy
Stream size : 458 MiB (10%)
Title : Original
Language : English
Service kind : Complete Main
Default : No
Forced : No
Dialog Normalization : -31 dB
cmixlev : -4.5 dB
surmixlev : -6 dB
dialnorm_Average : -31 dB
dialnorm_Minimum : -31 dB
dialnorm_Maximum : -31 dB

Text #1
ID : 5
Format : UTF-8
Codec ID : S_TEXT/UTF8
Codec ID/Info : UTF-8 Plain Text
Duration : 1 h 31 min
Bit rate : 108 b/s
Frame rate : 0.209 FPS
Count of elements : 1154
Stream size : 73.3 KiB (0%)
Title : Full
Language : Russian
Default : No
Forced : No

Text #2
ID : 6
Format : UTF-8
Codec ID : S_TEXT/UTF8
Codec ID/Info : UTF-8 Plain Text
Duration : 1 h 31 min
Bit rate : 68 b/s
Frame rate : 0.212 FPS
Count of elements : 1171
Stream size : 46.1 KiB (0%)
Title : Full
Language : English
Default : No
Forced : No

Text #3
ID : 7
Format : UTF-8
Codec ID : S_TEXT/UTF8
Codec ID/Info : UTF-8 Plain Text
Duration : 1 h 33 min
Bit rate : 71 b/s
Frame rate : 0.222 FPS
Count of elements : 1242
Stream size : 48.5 KiB (0%)
Title : SDH
Language : English
Default : No
Forced : No

Menu
00:00:00.000 : Chapter 01
00:05:04.042 : Chapter 02
00:12:02.667 : Chapter 03
00:21:43.792 : Chapter 04
00:30:34.917 : Chapter 05
00:39:07.708 : Chapter 06
00:48:42.083 : Chapter 07
00:56:13.125 : Chapter 08
01:04:24.833 : Chapter 09
01:13:31.042 : Chapter 10
01:22:39.583 : Chapter 11
01:32:18.250 : Chapter 12

Другие фильмы
У данной публикации пока нет комментариев.
Будь первым, оставь своё мнение в комментариях!
Информация
Посетители, находящиеся в группе Гости, не могут оставлять комментарии к данной публикации.
Самый популярный релиз недели
Донаты
Мы в соц. сетях / RSS

Лучшие релизы месяца
Лучшие SD недели
Лучшие 720p недели
Лучшие 1080p недели
Лучшие 4K недели
Вы недавно смотрели
Реклама
Последние комментарии
...

Al1ksandr

21 июня 2024 21:02

...

Bonzo

14 июня 2024 14:52

...

rmzshka

13 июня 2024 17:48

...

rmzshka

13 июня 2024 12:24

...

LisNick

13 июня 2024 08:45

Реклама