+29

Тёмная материя / Dark Matter [01x01-08 из 09] (2024) WEB-DLRip-AVC от DoMiNo & селезень | HDRezka Studio

Информация о фильме
Название: Тёмная материя
Оригинальное название: Dark Matter
Год выхода: 2024
Жанр: фантастика, триллер, драма
Режиссер: Якоб Вербрюгген, Роксанн Доусон, Логан Джордж
В ролях: Джоэл Эдгертон, Дженнифер Коннелли, Оакс Фигли, Алиси Брага, Джимми Симпсон, Дайо Окенийи, Аманда Бругел, Tiff Abreu, Bassam Abdelfattah, Джимми Стикс и другие.

О фильме:
Физик Джейсон Дессен из Чикаго оказывается в альтернативной версии свой жизни. Чтобы вернуться к своей семье, он должен будет пройти через ряд параллельных реальностей и столкнуться с альтернативной версией самого себя.

Страна: США
Студия: Matt Tolmach Productions, Sony Pictures Television
Продолжительность: ~ 00:55:00
Перевод: Профессиональный (многоголосый, закадровый) | HDRezka Studio
Субтитры: Русские (Forced |HDRezka Studio|, Full, SDH |Apple TV+|), Английские

Файл
Формат: Matroska
Качество: WEB-DLRip-AVC
Видео: 1024x512 at 23.976 fps, [email protected], ~1600 kbps
Аудио: AC3, 2 ch, ~192 kbps - | Русский | Тёмная материя / Dark Matter [01x01-08 из 09] (2024) WEB-DLRip-AVC от DoMiNo & селезень | HDRezka Studio
Формат субтитров: softsub (SRT)

Авторизуйтесь для получения доступа к скачиванию

Нет аккаунта? Регистрация открыта и займёт меньше минуты

Вход Регистрация

x264 [info]: frame I: 468 Avg QP: 14.32 size: 45203
x264 [info]: frame P: 14485 Avg QP: 16.80 size: 18967
x264 [info]: frame B: 51596 Avg QP: 18.63 size: 5019

General
Unique ID: 65505755890149710742745661595594201677 (0×3147F31E3813236C81B75C75E0A31A4D)
Complete name: E: vrmDark.Matter.2024.S01.ATVP.WEB-DLRip.x264.seleZenDark.Matter.S01E01.WEB-DLRip.x264.seleZen.mkv
Format: Matroska
Format version: Version 4
File size: 594 MiB
Duration: 46 min 15 s
Overall bit rate: 1 794 kb/s
Frame rate: 23.976 FPS
Movie name: Dark.Matter.S01E01.WEB-DLRip.x264.seleZen
Encoded date: 10.05.2024 07:59:50 UTC
Writing application: mkvmerge v84.0 ('Sleeper') 64-bit
Writing library: libebml v1.4.5 + libmatroska v1.7.1
Cover: Yes
Attachments: cover.jpg / small_cover.jpg

Video
ID: 1
Format: AVC
Format/Info: Advanced Video Codec
Format profile: [email protected]
Format settings: CABAC / 9 Ref Frames
Format settings, CABAC: Yes
Format settings, Reference: 9 frames
Codec ID: V_MPEG4/ISO/AVC
Duration: 46 min 15 s
Bit rate: 1 600 kb/s
Width: 1 024 pixels
Height: 512 pixels
Display aspect ratio: 2.000
Frame rate mode: Constant
Frame rate: 23.976 (24000/1001) FPS
Color space: YUV
Chroma subsampling: 4:2:0
Bit depth: 8 bits
Scan type: Progressive
Bits/(Pixel*Frame): 0.127
Stream size: 529 MiB (89%)
Title: -=DoMiNo=-
Writing library: x264 core 164 r3190 -DoMiNo
Encoding settings: cabac=1 / ref=9 / deblock=1:-2:-2 / analyse=0×3:0×133 / me=umh / subme=10 / psy=1 / psy_rd=1.00:0.15 / mixed_ref=1 / me_range=32 / chroma_me=1 / trellis=2 / 8×8dct=1 / cqm=0 / deadzone=21,11 / fast_pskip=0 / chroma_qp_offset=-3 / threads=16 / lookahead_threads=2 / sliced_threads=0 / nr=0 / decimate=0 / interlaced=0 / bluray_compat=0 / constrained_intra=0 / bframes=9 / b_pyramid=2 / b_adapt=2 / b_bias=0 / direct=3 / weightb=1 / open_gop=0 / weightp=2 / keyint=240 / keyint_min=23 / scenecut=40 / intra_refresh=0 / rc_lookahead=60 / rc=2pass / mbtree=0 / bitrate=1600 / ratetol=1.0 / qcomp=0.60 / qpmin=0 / qpmax=69 / qpstep=4 / cplxblur=20.0 / qblur=0.5 / vbv_maxrate=50000 / vbv_bufsize=62500 / nal_hrd=none / filler=0 / ip_ratio=1.20 / pb_ratio=1.30 / aq=1:0.90
Language: English
Default: Yes
Forced: No
Color range: Limited
Color primaries: BT.709
Transfer characteristics: BT.709
Matrix coefficients: BT.709

Audio
ID: 2
Format: AC-3
Format/Info: Audio Coding 3
Commercial name: Dolby Digital
Codec ID: A_AC3
Duration: 46 min 15 s
Bit rate mode: Constant
Bit rate: 192 kb/s
Channel (s): 2 channels
Channel layout: L R
Sampling rate: 48.0 kHz
Frame rate: 31.250 FPS (1536 SPF)
Compression mode: Lossy
Stream size: 63.5 MiB (11%)
Title: MVO [HDRezka Studio]
Language: Russian
Service kind: Complete Main
Default: Yes
Forced: No
Dialog Normalization: -22 dB
compr: -0.28 dB
ltrtcmixlev: -3.0 dB
ltrtsurmixlev: -3.0 dB
lorocmixlev: -3.0 dB
lorosurmixlev: -3.0 dB
dialnorm_Average: -22 dB
dialnorm_Minimum: -22 dB
dialnorm_Maximum: -22 dB

Text #1
ID: 3
Format: UTF-8
Codec ID: S_TEXT/UTF8
Codec ID/Info: UTF-8 Plain Text
Duration: 40 min 49 s
Bit rate: 3 b/s
Frame rate: 0.007 FPS
Count of elements: 16
Stream size: 986 Bytes (0%)
Title: Forced
Language: Russian
Default: No
Forced: No

Text #2
ID: 4
Format: UTF-8
Codec ID: S_TEXT/UTF8
Codec ID/Info: UTF-8 Plain Text
Duration: 44 min 14 s
Bit rate: 61 b/s
Frame rate: 0.177 FPS
Count of elements: 471
Stream size: 19.9 KiB (0%)
Title: Full [Apple TV+]
Language: Russian
Default: No
Forced: No

Text #3
ID: 5
Format: UTF-8
Codec ID: S_TEXT/UTF8
Codec ID/Info: UTF-8 Plain Text
Duration: 45 min 54 s
Bit rate: 76 b/s
Frame rate: 0.213 FPS
Count of elements: 587
Stream size: 25.9 KiB (0%)
Title: SDH [Apple TV+]
Language: Russian
Default: No
Forced: No

Text #4
ID: 6
Format: UTF-8
Codec ID: S_TEXT/UTF8
Codec ID/Info: UTF-8 Plain Text
Duration: 42 min 32 s
Bit rate: 41 b/s
Frame rate: 0.176 FPS
Count of elements: 450
Stream size: 13.0 KiB (0%)
Title: Full
Language: English
Default: No
Forced: No

Text #5
ID: 7
Format: UTF-8
Codec ID: S_TEXT/UTF8
Codec ID/Info: UTF-8 Plain Text
Duration: 44 min 57 s
Bit rate: 51 b/s
Frame rate: 0.210 FPS
Count of elements: 566
Stream size: 17.0 KiB (0%)
Title: SDH
Language: English
Default: No
Forced: No

Menu
00:00:00.000: en: Studio Logo
00:00:08.843: en: Main
00:45:10.833: en: Credits

Другие фильмы
У данной публикации пока нет комментариев.
Будь первым, оставь своё мнение в комментариях!
Информация
Посетители, находящиеся в группе Гости, не могут оставлять комментарии к данной публикации.
Самый популярный релиз недели
Донаты
Мы в соц. сетях / RSS

Лучшие релизы месяца
Лучшие SD недели
Лучшие 720p недели
Лучшие 1080p недели
Лучшие 4K недели
Вы недавно смотрели
Реклама
Последние комментарии
...

Al1ksandr

21 июня 2024 21:02

...

Bonzo

14 июня 2024 14:52

...

rmzshka

13 июня 2024 17:48

...

rmzshka

13 июня 2024 12:24

...

LisNick

13 июня 2024 08:45

Реклама