+12

Таро: Карта смерти / Tarot (2024) BDRip 720p от DoMiNo & селезень | D, P, A

Информация о фильме
Название: Таро: Карта смерти
Оригинальное название: Tarot
Год выпуска: 2024
Жанр: Ужасы
Режиссер: Спенсер Коэн / Spenser Cohen, Анна Халберг / Anna Halberg
В ролях: Харриет Слейтер, Эдейн Брэдли, Джейкоб Баталон, Авантика, Умберли Гонсалес, Вольфганг Новограц, Ларсен Томпсон, Олуэн Фуэре, Сунчика Миланович, Алан Уэллс, Анна Халберг, Кевин Корнуолл, Джосс Картер, Джеймс Суонтон

О фильме:
Когда компания друзей безрассудно нарушает священное правило гадания на Таро — никогда не использовать чужую колоду — они неосознанно высвобождают зло, запертое в проклятых картах. Один за другим они оказываются лицом к лицу с судьбой и вступают в гонку со смертью, чтобы избежать будущего, предсказанного в их гаданиях.

Выпущено: США, Сербия, Alloy Entertainment, Capstone Pictures, Ground Control, Screen Gems
Продолжительность: 01:31:58
Перевод 1: Дублированный | MovieDalen
Перевод 2: Профессиональный (многоголосый, закадровый) | HDRezka Studio
Перевод 3: Авторский (одноголосый, закадровый) | Дмитрий Есарев | 18+
Субтитры: Русские (Forced, Full), Английские (Full, SDH)

Файл
Формат: Matroska
Качество: BDRip 720p
Видео: 1280x536 at 23.976 fps, MPEG-4 AVC, ~4136 kbps
Аудио 1: AC3, 6 ch, ~384 kbps - | Русский | Таро: Карта смерти / Tarot (2024) BDRip 720p от DoMiNo & селезень | D, P, A | DUB | MovieDalen
Аудио 2: AC3, 2 ch, ~192 kbps - | Русский | | MVO | HDRezka Studio
Аудио 3: AC3, 6 ch, ~640 kbps - | Русский | | AVO | Дмитрий Есарев
Аудио 4: AC3, 6 ch, ~640 kbps - | Английский | | Original
Формат субтитров: softsub (SRT)

Авторизуйтесь для получения доступа к скачиванию

Нет аккаунта? Регистрация открыта и займёт меньше минуты

Вход Регистрация

General
Unique ID : 18534570169024189685458452572159261410 (0xDF1A0DCD29C80BED9919A06789EBAE2)
Complete name : K:Tarot.2024.BDRip.720p.x264.seleZen.mkv
Format : Matroska
Format version : Version 4
File size : 3.85 GiB
Duration : 1 h 32 min
Overall bit rate : 5 981 kb/s
Frame rate : 23.976 FPS
Movie name : Tarot.2024.BDRip.720p.x264.seleZen
Encoded date : 2024-07-10 15:26:16 UTC
Writing application : mkvmerge v85.0 ('Shame For You') 64-bit
Writing library : libebml v1.4.5 + libmatroska v1.7.1
Cover : Yes
Attachments : cover.jpg / small_cover.jpg

Video
ID : 1
Format : AVC
Format/Info : Advanced Video Codec
Format profile : [email protected]
Format settings : CABAC / 12 Ref Frames
Format settings, CABAC : Yes
Format settings, Reference : 12 frames
Codec ID : V_MPEG4/ISO/AVC
Duration : 1 h 31 min
Bit rate : 4 136 kb/s
Width : 1 280 pixels
Height : 536 pixels
Display aspect ratio : 2.39:1
Frame rate mode : Constant
Frame rate : 23.976 (24000/1001) FPS
Color space : YUV
Chroma subsampling : 4:2:0
Bit depth : 8 bits
Scan type : Progressive
Bits/(Pixel*Frame) : 0.251
Stream size : 2.66 GiB (69%)
Title : -=DoMiNo=-
Writing library : x264 core 164 r3191 -DoMiNo
Encoding settings : cabac=1 / ref=12 / deblock=1:-3:-2 / analyse=0x3:0x133 / me=umh / subme=10 / psy=1 / psy_rd=1.00:0.05 / mixed_ref=1 / me_range=32 / chroma_me=1 / trellis=2 / 8x8dct=1 / cqm=0 / deadzone=21,11 / fast_pskip=0 / chroma_qp_offset=-3 / threads=17 / lookahead_threads=4 / sliced_threads=0 / nr=0 / decimate=1 / interlaced=0 / bluray_compat=0 / constrained_intra=0 / bframes=10 / b_pyramid=2 / b_adapt=2 / b_bias=0 / direct=3 / weightb=1 / open_gop=0 / weightp=2 / keyint=240 / keyint_min=23 / scenecut=40 / intra_refresh=0 / rc_lookahead=60 / rc=crf / mbtree=0 / crf=16.0 / qcomp=0.60 / qpmin=0 / qpmax=69 / qpstep=4 / vbv_maxrate=50000 / vbv_bufsize=62500 / crf_max=0.0 / nal_hrd=none / filler=0 / ip_ratio=1.40 / pb_ratio=1.30 / aq=1:0.90
Language : English
Default : Yes
Forced : No
Color range : Limited
Color primaries : BT.709
Transfer characteristics : BT.709
Matrix coefficients : BT.709

Audio #1
ID : 2
Format : AC-3
Format/Info : Audio Coding 3
Commercial name : Dolby Digital
Codec ID : A_AC3
Duration : 1 h 31 min
Bit rate mode : Constant
Bit rate : 384 kb/s
Channel(s) : 6 channels
Channel layout : L R C LFE Ls Rs
Sampling rate : 48.0 kHz
Frame rate : 31.250 FPS (1536 SPF)
Compression mode : Lossy
Stream size : 253 MiB (6%)
Title : DUB MovieDalen
Language : Russian
Service kind : Complete Main
Default : Yes
Forced : No
Dialog Normalization : -31 dB
cmixlev : -4.5 dB
surmixlev : -6 dB
dialnorm_Average : -31 dB
dialnorm_Minimum : -31 dB
dialnorm_Maximum : -31 dB

Audio #2
ID : 3
Format : AC-3
Format/Info : Audio Coding 3
Commercial name : Dolby Digital
Codec ID : A_AC3
Duration : 1 h 32 min
Bit rate mode : Constant
Bit rate : 192 kb/s
Channel(s) : 2 channels
Channel layout : L R
Sampling rate : 48.0 kHz
Frame rate : 31.250 FPS (1536 SPF)
Compression mode : Lossy
Stream size : 127 MiB (3%)
Title : MVO HDRezka Studio
Language : Russian
Service kind : Complete Main
Default : No
Forced : No
Dialog Normalization : -31 dB
dialnorm_Average : -31 dB
dialnorm_Minimum : -31 dB
dialnorm_Maximum : -31 dB

Audio #3
ID : 4
Format : AC-3
Format/Info : Audio Coding 3
Commercial name : Dolby Digital
Codec ID : A_AC3
Duration : 1 h 32 min
Bit rate mode : Constant
Bit rate : 640 kb/s
Channel(s) : 6 channels
Channel layout : L R C LFE Ls Rs
Sampling rate : 48.0 kHz
Frame rate : 31.250 FPS (1536 SPF)
Compression mode : Lossy
Stream size : 422 MiB (11%)
Title : AVO Дмитрий Есарев
Language : Russian
Service kind : Complete Main
Default : No
Forced : No
Dialog Normalization : -31 dB
cmixlev : -4.5 dB
surmixlev : -6 dB
dialnorm_Average : -31 dB
dialnorm_Minimum : -31 dB
dialnorm_Maximum : -31 dB

Audio #4
ID : 5
Format : AC-3
Format/Info : Audio Coding 3
Commercial name : Dolby Digital
Codec ID : A_AC3
Duration : 1 h 31 min
Bit rate mode : Constant
Bit rate : 640 kb/s
Channel(s) : 6 channels
Channel layout : L R C LFE Ls Rs
Sampling rate : 48.0 kHz
Frame rate : 31.250 FPS (1536 SPF)
Compression mode : Lossy
Stream size : 421 MiB (11%)
Language : English
Service kind : Complete Main
Default : No
Forced : No
Dialog Normalization : -31 dB
cmixlev : -4.5 dB
surmixlev : -6 dB
dialnorm_Average : -31 dB
dialnorm_Minimum : -31 dB
dialnorm_Maximum : -31 dB

Text #1
ID : 6
Format : UTF-8
Codec ID : S_TEXT/UTF8
Codec ID/Info : UTF-8 Plain Text
Duration : 1 h 18 min
Bit rate : 1 b/s
Frame rate : 0.007 FPS
Count of elements : 32
Stream size : 1.13 KiB (0%)
Title : Forced
Language : Russian
Default : No
Forced : No

Text #2
ID : 7
Format : UTF-8
Codec ID : S_TEXT/UTF8
Codec ID/Info : UTF-8 Plain Text
Duration : 1 h 31 min
Bit rate : 86 b/s
Frame rate : 0.203 FPS
Count of elements : 1110
Stream size : 58.1 KiB (0%)
Language : Russian
Default : No
Forced : No

Text #3
ID : 8
Format : UTF-8
Codec ID : S_TEXT/UTF8
Codec ID/Info : UTF-8 Plain Text
Duration : 1 h 31 min
Bit rate : 55 b/s
Frame rate : 0.226 FPS
Count of elements : 1236
Stream size : 36.7 KiB (0%)
Language : English
Default : No
Forced : No

Text #4
ID : 9
Format : UTF-8
Codec ID : S_TEXT/UTF8
Codec ID/Info : UTF-8 Plain Text
Duration : 1 h 31 min
Bit rate : 64 b/s
Frame rate : 0.259 FPS
Count of elements : 1421
Stream size : 43.1 KiB (0%)
Title : SDH
Language : English
Default : No
Forced : No

Menu
00:00:00.000 : en:Chapter 01
00:04:23.930 : en:Chapter 02
00:10:31.588 : en:Chapter 03
00:16:35.159 : en:Chapter 04
00:21:18.818 : en:Chapter 05
00:27:13.839 : en:Chapter 06
00:34:10.757 : en:Chapter 07
00:39:20.608 : en:Chapter 08
00:43:06.166 : en:Chapter 09
00:50:29.943 : en:Chapter 10
00:56:00.815 : en:Chapter 11
01:00:50.771 : en:Chapter 12
01:04:17.269 : en:Chapter 13
01:08:14.965 : en:Chapter 14
01:13:26.109 : en:Chapter 15
01:23:21.578 : en:Chapter 16

Другие фильмы
У данной публикации пока нет комментариев.
Будь первым, оставь своё мнение в комментариях!
Информация
Посетители, находящиеся в группе Гости, не могут оставлять комментарии к данной публикации.
Самый популярный релиз недели
Донаты
Мы в соц. сетях / RSS

Лучшие релизы месяца
Лучшие SD недели
Лучшие 720p недели
Лучшие 1080p недели
Лучшие 4K недели
Вы недавно смотрели
Реклама
Последние комментарии
...

fataxdd

16 июля 2024 07:13

...

Rustik99

12 июля 2024 10:11

...

Rograr

6 июля 2024 19:56

...

fenix

2 июля 2024 07:45

...

Fidelrus

28 июня 2024 13:53

Реклама