+12

ЗащитнеГ / Defendor (2009) WEB-DLRip-AVC от DoMiNo & селезень | P, A | Open Matte

Информация о фильме
Название: ЗащитнеГ
Оригинальное название: Defendor
Год выпуска: 2009
Жанр: Драма, комедия, криминал
Режиссер: Питер Стеббингс
В ролях: Вуди Харрельсон, Кэт Деннингс, Элиас Котеас, Сандра О, Шарлотта Салливан, Майкл Келли, Лиза Рэй, Кристин Бут, Дакота Гойо, Татьяна Маслани

О фильме:
Простой парень Артур Поппингтон решает, что он супергерой Защитник, и каждую ночь, напялив тугие лосины, отправляется на улицы города в поисках своего главного врага Капитана Индастри — наркодилера, которого Артур ошибочно винит в смерти матери. Однако вместо Индастри герой встречает молодую проститутку и вместе с ней, а также при моральной поддержке своего лечащего психиатра, «доказывает, что каждый способен сделать мир лучше».

Выпущено: США, Канада, Великобритания, BUCK Productions, Darius Films Inc.
Продолжительность: 01:41:23
Перевод 1: Профессиональный (многоголосый закадровый) | R5
Перевод 2: Авторский (одноголосый, закадровый) | Михаил Чадов
Перевод 3: Авторский (одноголосый, закадровый) | Вячеслав Zamez
Субтитры: Русские (надписи), Русские (R5), Русские (Егор Мотыгин), английские (SDH)

Файл
Формат: Matroska
Качество: WEB-DLRip-AVC | Open Matte
Видео: 1022x576 at 23.976 fps, [email protected], ~2243 kbps
Аудио 1: AC3, 6 ch, ~448 kbps - | Русский | ЗащитнеГ / Defendor (2009) WEB-DLRip-AVC от DoMiNo & селезень | P, A | Open Matte | R5
Аудио 2: AC3, 6 ch, ~448 kbps - | Русский | | Михаил Чадов
Аудио 3: AC3, 6 ch, ~448 kbps - | Русский | | Вячеслав Zamez
Аудио 4: AC3, 6 ch, ~448 kbps - | Английский | | Original
Формат субтитров: softsub (SRT)

Авторизуйтесь для получения доступа к скачиванию

Нет аккаунта? Регистрация открыта и займёт меньше минуты

Вход Регистрация

x264 [info]: frame I: 1049 Avg QP: 15.73 size: 73783
x264 [info]: frame P: 28659 Avg QP: 17.25 size: 25381
x264 [info]: frame B: 116492 Avg QP: 20.15 size: 7767

General
Unique ID: 107916717700424214788566207335197969684 (0×513000F9D17510ED1CBADBA3ED420D14)
Complete name: S: Defendor.2009.MVO.Open.Matte.WEB-DLRip.x264.seleZen.mkv
Format: Matroska
Format version: Version 4
File size: 2.87 GiB
Duration: 1 h 41 min
Overall bit rate: 4 038 kb/s
Frame rate: 23.976 FPS
Movie name: Defendor.2009.MVO.Open.Matte.WEB-DLRip.x264.seleZen
Encoded date: 08.06.2024 08:44:24 UTC
Writing application: mkvmerge v85.0 ('Shame For You') 64-bit
Writing library: libebml v1.4.5 + libmatroska v1.7.1
Cover: Yes
Attachments: cover.jpg / small_cover.jpg

Video
ID: 1
Format: AVC
Format/Info: Advanced Video Codec
Format profile: [email protected]
Format settings: CABAC / 14 Ref Frames
Format settings, CABAC: Yes
Format settings, Reference: 14 frames
Codec ID: V_MPEG4/ISO/AVC
Duration: 1 h 41 min
Bit rate: 2 243 kb/s
Width: 1 022 pixels
Height: 576 pixels
Display aspect ratio: 16:9
Frame rate mode: Constant
Frame rate: 23.976 (24000/1001) FPS
Color space: YUV
Chroma subsampling: 4:2:0
Bit depth: 8 bits
Scan type: Progressive
Bits/(Pixel*Frame): 0.159
Stream size: 1.59 GiB (56%)
Title: -=DoMiNo=-
Writing library: x264 core 164 r3191 -DoMiNo
Encoding settings: cabac=1 / ref=14 / deblock=1:-2:-1 / analyse=0×3:0×133 / me=umh / subme=10 / psy=1 / psy_rd=1.00:0.15 / mixed_ref=1 / me_range=32 / chroma_me=1 / trellis=2 / 8×8dct=1 / cqm=0 / deadzone=21,11 / fast_pskip=0 / chroma_qp_offset=-3 / threads=18 / lookahead_threads=4 / sliced_threads=0 / nr=0 / decimate=1 / interlaced=0 / bluray_compat=0 / constrained_intra=0 / bframes=10 / b_pyramid=2 / b_adapt=2 / b_bias=0 / direct=3 / weightb=1 / open_gop=0 / weightp=2 / keyint=250 / keyint_min=23 / scenecut=40 / intra_refresh=0 / rc_lookahead=60 / rc=crf / mbtree=0 / crf=18.5 / qcomp=0.60 / qpmin=0 / qpmax=69 / qpstep=4 / vbv_maxrate=50000 / vbv_bufsize=62500 / crf_max=0.0 / nal_hrd=none / filler=0 / ip_ratio=1.40 / pb_ratio=1.30 / aq=1:0.90
Language: English
Default: Yes
Forced: No

Audio #1
ID: 2
Format: AC-3
Format/Info: Audio Coding 3
Commercial name: Dolby Digital
Codec ID: A_AC3
Duration: 1 h 41 min
Bit rate mode: Constant
Bit rate: 448 kb/s
Channel (s): 6 channels
Channel layout: L R C LFE Ls Rs
Sampling rate: 48.0 kHz
Frame rate: 31.250 FPS (1536 SPF)
Compression mode: Lossy
Stream size: 326 MiB (11%)
Title: MVO R5
Language: Russian
Service kind: Complete Main
Default: Yes
Forced: No
Dialog Normalization: -31 dB
compr: -0.28 dB
cmixlev: -3.0 dB
surmixlev: -3 dB
dialnorm_Average: -31 dB
dialnorm_Minimum: -31 dB
dialnorm_Maximum: -31 dB

Audio #2
ID: 3
Format: AC-3
Format/Info: Audio Coding 3
Commercial name: Dolby Digital
Codec ID: A_AC3
Duration: 1 h 41 min
Bit rate mode: Constant
Bit rate: 448 kb/s
Channel (s): 6 channels
Channel layout: L R C LFE Ls Rs
Sampling rate: 48.0 kHz
Frame rate: 31.250 FPS (1536 SPF)
Compression mode: Lossy
Stream size: 326 MiB (11%)
Title: AVO -Михаил Чадов
Language: Russian
Service kind: Complete Main
Default: No
Forced: No
Dialog Normalization: -31 dB
compr: -0.28 dB
cmixlev: -3.0 dB
surmixlev: -3 dB
dialnorm_Average: -31 dB
dialnorm_Minimum: -31 dB
dialnorm_Maximum: -31 dB

Audio #3
ID: 4
Format: AC-3
Format/Info: Audio Coding 3
Commercial name: Dolby Digital
Codec ID: A_AC3
Duration: 1 h 41 min
Bit rate mode: Constant
Bit rate: 448 kb/s
Channel (s): 6 channels
Channel layout: L R C LFE Ls Rs
Sampling rate: 48.0 kHz
Frame rate: 31.250 FPS (1536 SPF)
Compression mode: Lossy
Stream size: 326 MiB (11%)
Title: AVO -Вячеслав Zamez
Language: Russian
Service kind: Complete Main
Default: No
Forced: No
Dialog Normalization: -27 dB
compr: -0.28 dB
cmixlev: -3.0 dB
surmixlev: -3 dB
dialnorm_Average: -27 dB
dialnorm_Minimum: -27 dB
dialnorm_Maximum: -27 dB

Audio #4
ID: 5
Format: AC-3
Format/Info: Audio Coding 3
Commercial name: Dolby Digital
Codec ID: A_AC3
Duration: 1 h 41 min
Bit rate mode: Constant
Bit rate: 448 kb/s
Channel (s): 6 channels
Channel layout: L R C LFE Ls Rs
Sampling rate: 48.0 kHz
Frame rate: 31.250 FPS (1536 SPF)
Compression mode: Lossy
Stream size: 326 MiB (11%)
Title: Original
Language: English
Service kind: Complete Main
Default: No
Forced: No
Dialog Normalization: -27 dB
compr: -0.28 dB
cmixlev: -3.0 dB
surmixlev: -3 dB
dialnorm_Average: -27 dB
dialnorm_Minimum: -27 dB
dialnorm_Maximum: -27 dB

Text #1
ID: 6
Format: UTF-8
Codec ID: S_TEXT/UTF8
Codec ID/Info: UTF-8 Plain Text
Duration: 1 h 35 min
Bit rate: 1 b/s
Frame rate: 0.005 FPS
Count of elements: 26
Stream size: 1.17 KiB (0%)
Title: Forced Rus
Language: Russian
Default: No
Forced: No

Text #2
ID: 7
Format: UTF-8
Codec ID: S_TEXT/UTF8
Codec ID/Info: UTF-8 Plain Text
Duration: 1 h 35 min
Bit rate: 71 b/s
Frame rate: 0.186 FPS
Count of elements: 1064
Stream size: 49.9 KiB (0%)
Title: русские R5
Language: Russian
Default: No
Forced: No

Text #3
ID: 8
Format: UTF-8
Codec ID: S_TEXT/UTF8
Codec ID/Info: UTF-8 Plain Text
Duration: 1 h 34 min
Bit rate: 78 b/s
Frame rate: 0.166 FPS
Count of elements: 936
Stream size: 54.0 KiB (0%)
Title: Егор Мотыгин
Language: Russian
Default: No
Forced: No

Text #4
ID: 9
Format: UTF-8
Codec ID: S_TEXT/UTF8
Codec ID/Info: UTF-8 Plain Text
Duration: 1 h 38 min
Bit rate: 52 b/s
Frame rate: 0.225 FPS
Count of elements: 1322
Stream size: 37.7 KiB (0%)
Title: оригинал SDH
Language: English
Default: No
Forced: No

Menu
00:00:00.000: en: Chapter 1
00:04:52.834: en: Chapter 2
00:10:57.031: en: Chapter 3
00:18:46.125: en: Chapter 4
00:25:45.377: en: Chapter 5
00:33:44.981: en: Chapter 6
00:37:46.723: en: Chapter 7
00:43:29.816: en: Chapter 8
00:49:31.510: en: Chapter 9
00:54:26.889: en: Chapter 10
00:59:48.376: en: Chapter 11
01:07:41.432: en: Chapter 12
01:15:15.928: en: Chapter 13
01:21:03.067: en: Chapter 14
01:26:07.537: en: Chapter 15
01:34:24.909: en: Chapter 16

Другие фильмы
У данной публикации пока нет комментариев.
Будь первым, оставь своё мнение в комментариях!
Информация
Посетители, находящиеся в группе Гости, не могут оставлять комментарии к данной публикации.
Самый популярный релиз недели
Донаты
Мы в соц. сетях / RSS

Лучшие релизы месяца
Лучшие SD недели
Лучшие 720p недели
Лучшие 1080p недели
Лучшие 4K недели
Вы недавно смотрели
Реклама
Последние комментарии
...

Al1ksandr

21 июня 2024 21:02

...

Bonzo

14 июня 2024 14:52

...

rmzshka

13 июня 2024 17:48

...

rmzshka

13 июня 2024 12:24

...

LisNick

13 июня 2024 08:45

Реклама