+11

Годзилла и Конг: Новая империя / Godzilla x Kong: The New Empire (2024) BDRip 1080p от селезень | D, P

Информация о фильме
Название: Годзилла и Конг: Новая империя
Оригинальное название: Godzilla x Kong: The New Empire
Год выхода: 2024
Жанр: фантастика, боевик
Режиссер: Адам Вингард
В ролях: Ребекка Холл, Брайан Тайри Генри, Дэн Стивенс, Кэйли Хоттл, Алекс Фернс, Чэнь Фала, Рэйчел Хаус, Рональд Смик, Чантелл Джемисон, Грег Хаттон

О фильме:
Два древних титана, Годзилла и Конг, сражаются в эпической битве, пока люди разгадывают их происхождение и связь с тайнами Острова черепа.

Страна: США, Австралия
Студия: Legendary Pictures, Screen Queensland, Warner Bros.
Продолжительность: 01:54:41
Перевод 1: Дублированный | Bravo Records Georgia / Movie Dubbing
Перевод 2: Дублированный (неофициальный) | Red Head Sound
Перевод 3: Профессиональный (многоголосый закадровый) | Jaskier
Субтитры: Русские (Forced, full), английские

Файл
Формат: Matroska
Качество: BDRip 1080p
Видео: 1920x804 at 23.976 fps, [email protected], ~10000 kbps
Аудио #01: 48 kHz, AC3, 5.1, 384 Kbps | DUB - | Русский | Годзилла и Конг: Новая империя / Godzilla x Kong: The New Empire (2024) BDRip 1080p от селезень | D, P | Bravo Records Georgia / Movie Dubbing
Аудио #02: 48 kHz, E-AC3, 5.1, 384 Kbps | DUB - | Русский | | Bravo Records Georgia / Movie Dubbing
Аудио #03: 48 kHz, AC3, 2.0, 192 Kbps | DUB - | Русский | | Red Head Sound
Аудио #04: 48 kHz, AC3, 5.1, 384 Kbps | MVO - | Русский | | Jaskier
Аудио #05: 48 kHz, AC, 5.1, 640 Kbps - | Английский | | Original
Формат субтитров: softsub (SRT)

Авторизуйтесь для получения доступа к скачиванию

Нет аккаунта? Регистрация открыта и займёт меньше минуты

Вход Регистрация

x264 [info]: frame I: 1067 Avg QP: 16.88 size: 224536
x264 [info]: frame P: 43180 Avg QP: 20.43 size: 90909
x264 [info]: frame B: 120728 Avg QP: 22.30 size: 36706
x264 [info]: consecutive B-frames: 4,3% 5,8% 12,6% 28,4% 15,2% 24,0% 4,7% 3,7% 0,6% 0,1% 0,1% 0,4% 0,0%

General
Unique ID: 321043988739278129994915759025495119833 (0xF186D2B9297F6712D8E30FEC056697D9)
Complete name: H: VideoHGodzilla.x.Kong.The.New.Empire.2024.BDRip.1080p.x264.seleZen.mkv
Format: Matroska
Format version: Version 4
File size: 9.60 GiB
Duration: 1 h 54 min
Overall bit rate: 12.0 Mb/s
Frame rate: 23.976 FPS
Movie name: Godzilla.x.Kong.The.New.Empire.2024.BDRip.1080p.x264.seleZen
Encoded date: 08.06.2024 21:02:29 UTC
Writing application: mkvmerge v80.0 ('Roundabout') 64-bit
Writing library: libebml v1.4.4 + libmatroska v1.7.1
Cover: Yes
Attachments: cover.jpg / small_cover.jpg

Video
ID: 1
Format: AVC
Format/Info: Advanced Video Codec
Format profile: [email protected]
Format settings: CABAC / 5 Ref Frames
Format settings, CABAC: Yes
Format settings, Reference: 5 frames
Codec ID: V_MPEG4/ISO/AVC
Duration: 1 h 54 min
Bit rate: 10 000 kb/s
Width: 1 920 pixels
Height: 804 pixels
Display aspect ratio: 2.39:1
Frame rate mode: Constant
Frame rate: 23.976 (24000/1001) FPS
Color space: YUV
Chroma subsampling: 4:2:0
Bit depth: 8 bits
Scan type: Progressive
Bits/(Pixel*Frame): 0.270
Stream size: 8.01 GiB (83%)
Writing library: x264 core 164 r3164 seleZen
Encoding settings: cabac=1 / ref=5 / deblock=1:-2:-2 / analyse=0×3:0×133 / me=umh / subme=11 / psy=1 / psy_rd=1.01:0.03 / mixed_ref=1 / me_range=48 / chroma_me=1 / trellis=2 / 8×8dct=1 / cqm=0 / deadzone=21,11 / fast_pskip=0 / chroma_qp_offset=-3 / threads=25 / lookahead_threads=6 / sliced_threads=0 / nr=0 / decimate=0 / interlaced=0 / bluray_compat=0 / constrained_intra=0 / bframes=12 / b_pyramid=2 / b_adapt=2 / b_bias=0 / direct=3 / weightb=1 / open_gop=0 / weightp=2 / keyint=240 / keyint_min=23 / scenecut=40 / intra_refresh=0 / rc_lookahead=60 / rc=2pass / mbtree=0 / bitrate=10000 / ratetol=1.0 / qcomp=0.60 / qpmin=0 / qpmax=51 / qpstep=4 / cplxblur=20.0 / qblur=0.5 / vbv_maxrate=50000 / vbv_bufsize=62500 / nal_hrd=none / filler=0 / ip_ratio=1.40 / pb_ratio=1.30 / aq=3:0.80
Language: English
Default: Yes
Forced: No

Audio #1
ID: 2
Format: AC-3
Format/Info: Audio Coding 3
Commercial name: Dolby Digital
Codec ID: A_AC3
Duration: 1 h 54 min
Bit rate mode: Constant
Bit rate: 384 kb/s
Channel (s): 6 channels
Channel layout: L R C LFE Ls Rs
Sampling rate: 48.0 kHz
Frame rate: 31.250 FPS (1536 SPF)
Compression mode: Lossy
Stream size: 315 MiB (3%)
Title: DUB — Bravo Records Georgia
Language: Russian
Service kind: Complete Main
Default: Yes
Forced: No

Audio #2
ID: 3
Format: E-AC-3
Format/Info: Enhanced AC-3
Commercial name: Dolby Digital Plus
Codec ID: A_EAC3
Duration: 1 h 54 min
Bit rate mode: Constant
Bit rate: 384 kb/s
Channel (s): 6 channels
Channel layout: L R C LFE Ls Rs
Sampling rate: 48.0 kHz
Frame rate: 31.250 FPS (1536 SPF)
Compression mode: Lossy
Stream size: 315 MiB (3%)
Title: DUB — Bravo Records Georgia
Language: Russian
Service kind: Complete Main
Default: No
Forced: No

Audio #3
ID: 4
Format: AC-3
Format/Info: Audio Coding 3
Commercial name: Dolby Digital
Codec ID: A_AC3
Duration: 1 h 54 min
Bit rate mode: Constant
Bit rate: 192 kb/s
Channel (s): 2 channels
Channel layout: L R
Sampling rate: 48.0 kHz
Frame rate: 31.250 FPS (1536 SPF)
Compression mode: Lossy
Stream size: 157 MiB (2%)
Title: Dub — Red Head Sound
Language: Russian
Service kind: Complete Main
Default: No
Forced: No

Audio #4
ID: 5
Format: AC-3
Format/Info: Audio Coding 3
Commercial name: Dolby Digital
Codec ID: A_AC3
Duration: 1 h 54 min
Bit rate mode: Constant
Bit rate: 384 kb/s
Channel (s): 6 channels
Channel layout: L R C LFE Ls Rs
Sampling rate: 48.0 kHz
Frame rate: 31.250 FPS (1536 SPF)
Compression mode: Lossy
Stream size: 315 MiB (3%)
Title: MVO — Jaskier
Language: Russian
Service kind: Complete Main
Default: No
Forced: No

Audio #5
ID: 6
Format: AC-3
Format/Info: Audio Coding 3
Commercial name: Dolby Digital
Codec ID: A_AC3
Duration: 1 h 54 min
Bit rate mode: Constant
Bit rate: 640 kb/s
Channel (s): 6 channels
Channel layout: L R C LFE Ls Rs
Sampling rate: 48.0 kHz
Frame rate: 31.250 FPS (1536 SPF)
Compression mode: Lossy
Stream size: 525 MiB (5%)
Title: Original
Language: English
Service kind: Complete Main
Default: No
Forced: No

Text #1
ID: 7
Format: UTF-8
Codec ID: S_TEXT/UTF8
Codec ID/Info: UTF-8 Plain Text
Duration: 1 h 43 min
Bit rate: 3 b/s
Frame rate: 0.011 FPS
Count of elements: 67
Stream size: 2.85 KiB (0%)
Title: Forced
Language: Russian
Default: No
Forced: No

Text #2
ID: 8
Format: UTF-8
Codec ID: S_TEXT/UTF8
Codec ID/Info: UTF-8 Plain Text
Duration: 1 h 53 min
Bit rate: 51 b/s
Frame rate: 0.121 FPS
Count of elements: 825
Stream size: 42.6 KiB (0%)
Title: Full
Language: Russian
Default: No
Forced: No

Text #3
ID: 9
Format: UTF-8
Codec ID: S_TEXT/UTF8
Codec ID/Info: UTF-8 Plain Text
Duration: 1 h 33 min
Bit rate: 1 b/s
Frame rate: 0.010 FPS
Count of elements: 56
Stream size: 1.28 KiB (0%)
Title: Forced
Language: English
Default: No
Forced: No

Text #4
ID: 10
Format: UTF-8
Codec ID: S_TEXT/UTF8
Codec ID/Info: UTF-8 Plain Text
Duration: 1 h 45 min
Bit rate: 38 b/s
Frame rate: 0.151 FPS
Count of elements: 956
Stream size: 30.1 KiB (0%)
Title: Full
Language: English
Default: No
Forced: No

Text #5
ID: 11
Format: UTF-8
Codec ID: S_TEXT/UTF8
Codec ID/Info: UTF-8 Plain Text
Duration: 1 h 54 min
Bit rate: 53 b/s
Frame rate: 0.241 FPS
Count of elements: 1654
Stream size: 44.4 KiB (0%)
Title: Full SDH
Language: English
Default: No
Forced: No

Menu
00:00:00.000: en: Chapter 01
00:09:36.367: en: Chapter 02
00:18:34.863: en: Chapter 03
00:30:42.966: en: Chapter 04
00:38:47.491: en: Chapter 05
00:49:01.939: en: Chapter 06
01:00:24.037: en: Chapter 07
01:10:13.834: en: Chapter 08
01:19:26.887: en: Chapter 09
01:28:07.699: en: Chapter 10
01:38:40.539: en: Chapter 11
01:46:38.725: en: Chapter 12

Другие фильмы
У данной публикации пока нет комментариев.
Будь первым, оставь своё мнение в комментариях!
Информация
Посетители, находящиеся в группе Гости, не могут оставлять комментарии к данной публикации.
Самый популярный релиз недели
Донаты
Мы в соц. сетях / RSS

Лучшие релизы месяца
Лучшие SD недели
Лучшие 720p недели
Лучшие 1080p недели
Лучшие 4K недели
Вы недавно смотрели
Реклама
Последние комментарии
...

Al1ksandr

21 июня 2024 21:02

...

Bonzo

14 июня 2024 14:52

...

rmzshka

13 июня 2024 17:48

...

rmzshka

13 июня 2024 12:24

...

LisNick

13 июня 2024 08:45

Реклама