+9

Неожиданные связи / Cocorico (2024) BDRip 1080p от селезень | D

Информация о фильме
Название: Неожиданные связи
Оригинальное название: Cocorico
Год выхода: 2024
Жанр: комедия
Режиссер: Жюльен Эрве
В ролях: Кристиан Клавье, Дидье Бурдон, Сильви Тестю, Марианн Деникур, Жюльен Пестель, Хлоя Куллу, Софи Фруассар, Йохан Дионне, Патрик Прежан, Лоик Рожан

О фильме:
Фредерик Бувье Соваж очень гордится своей многовековой родословной, полной почтенных французских герцогов и сановников. А потому очень недоволен, что его единственная дочь Алиса встречается с Франсуа, парнем из бедной семьи, сыном продавца автомобилей. Несмотря на это, влюбленные заявляют о своем намерении пожениться и на общей встрече делают родителям необычный подарок. Накануне свадьбы будущие супруги решили проверить свое происхождение и сделали тест ДНК. Обе семьи ждет нечто большее, чем просто сюрприз.

Выпущено: Франция / SND Films, White and Yellow Films, M6 Films
Продолжительность: 01:31:19
Перевод: Дублированный | Марафон
Субтитры: Русские (Full), Английские

Файл
Формат: Matroska
Качество: BDRip 1080p
Видео: 1920x804 at 24.000 fps, [email protected], ~10500 kbps
Аудио 1: AC3, 2 ch, ~256 kbps - | Русский | Неожиданные связи / Cocorico (2024) BDRip 1080p от селезень | D
Аудио 2: AC3, 6 ch, ~640 kbps - | Французский |
Формат субтитров: softsub (SRT)

Авторизуйтесь для получения доступа к скачиванию

Нет аккаунта? Регистрация открыта и займёт меньше минуты

Вход Регистрация

General
Unique ID: 54788433523224906478916332012482159295 (0×2937DE543C8203ACD6DD168DCB4962BF)
Complete name: S: Cocorico.2024.DUB.BDRip.1080p.x264.seleZen.mkv
Format: Matroska
Format version: Version 4
File size: 7.26 GiB
Duration: 1 h 31 min
Overall bit rate: 11.4 Mb/s
Frame rate: 24.000 FPS
Movie name: Cocorico.2024.DUB.BDRip.1080p.x264.seleZen
Encoded date: 09.06.2024 15:04:21 UTC
Writing application: mkvmerge v85.0 ('Shame For You') 64-bit
Writing library: libebml v1.4.5 + libmatroska v1.7.1
Cover: Yes
Attachments: cover.jpg

Video
ID: 1
Format: AVC
Format/Info: Advanced Video Codec
Format profile: [email protected]
Format settings: CABAC / 5 Ref Frames
Format settings, CABAC: Yes
Format settings, Reference: 5 frames
Codec ID: V_MPEG4/ISO/AVC
Duration: 1 h 31 min
Bit rate: 10.5 Mb/s
Width: 1 920 pixels
Height: 804 pixels
Display aspect ratio: 2.39:1
Frame rate mode: Constant
Frame rate: 24.000 FPS
Color space: YUV
Chroma subsampling: 4:2:0
Bit depth: 8 bits
Scan type: Progressive
Bits/(Pixel*Frame): 0.283
Stream size: 6.69 GiB (92%)
Title: seleZen
Writing library: x264 core 164 r3164 seleZen
Encoding settings: cabac=1 / ref=5 / deblock=1:-2:-2 / analyse=0×3:0×133 / me=umh / subme=11 / psy=1 / psy_rd=1.04:0.03 / mixed_ref=1 / me_range=48 / chroma_me=1 / trellis=2 / 8×8dct=1 / cqm=0 / deadzone=21,11 / fast_pskip=0 / chroma_qp_offset=-3 / threads=25 / lookahead_threads=6 / sliced_threads=0 / nr=0 / decimate=0 / interlaced=0 / bluray_compat=0 / constrained_intra=0 / bframes=10 / b_pyramid=2 / b_adapt=2 / b_bias=0 / direct=3 / weightb=1 / open_gop=0 / weightp=2 / keyint=240 / keyint_min=23 / scenecut=40 / intra_refresh=0 / rc_lookahead=60 / rc=2pass / mbtree=0 / bitrate=10500 / ratetol=1.0 / qcomp=0.60 / qpmin=0 / qpmax=51 / qpstep=4 / cplxblur=20.0 / qblur=0.5 / vbv_maxrate=50000 / vbv_bufsize=62500 / nal_hrd=none / filler=0 / ip_ratio=1.40 / pb_ratio=1.30 / aq=3:0.80
Language: French
Default: Yes
Forced: No

Audio #1
ID: 2
Format: AC-3
Format/Info: Audio Coding 3
Commercial name: Dolby Digital
Codec ID: A_AC3
Duration: 1 h 31 min
Bit rate mode: Constant
Bit rate: 256 kb/s
Channel (s): 2 channels
Channel layout: L R
Sampling rate: 48.0 kHz
Frame rate: 31.250 FPS (1536 SPF)
Compression mode: Lossy
Stream size: 167 MiB (2%)
Title: Dub
Language: Russian
Service kind: Complete Main
Default: Yes
Forced: No
Dialog Normalization: -31 dB
dialnorm_Average: -31 dB
dialnorm_Minimum: -31 dB
dialnorm_Maximum: -31 dB

Audio #2
ID: 3
Format: AC-3
Format/Info: Audio Coding 3
Commercial name: Dolby Digital
Codec ID: A_AC3
Duration: 1 h 31 min
Bit rate mode: Constant
Bit rate: 640 kb/s
Channel (s): 6 channels
Channel layout: L R C LFE Ls Rs
Sampling rate: 48.0 kHz
Frame rate: 31.250 FPS (1536 SPF)
Compression mode: Lossy
Stream size: 418 MiB (6%)
Language: French
Service kind: Complete Main
Default: No
Forced: No
Dialog Normalization: -31 dB
cmixlev: -4.5 dB
surmixlev: -6 dB
dialnorm_Average: -31 dB
dialnorm_Minimum: -31 dB
dialnorm_Maximum: -31 dB

Text #1
ID: 4
Format: UTF-8
Codec ID: S_TEXT/UTF8
Codec ID/Info: UTF-8 Plain Text
Duration: 1 h 27 min
Bit rate: 134 b/s
Frame rate: 0.363 FPS
Count of elements: 1897
Stream size: 85.6 KiB (0%)
Title: Full [Off.]
Language: Russian
Default: No
Forced: No

Text #2
ID: 5
Format: UTF-8
Codec ID: S_TEXT/UTF8
Codec ID/Info: UTF-8 Plain Text
Duration: 1 h 30 min
Bit rate: 81 b/s
Frame rate: 0.338 FPS
Count of elements: 1827
Stream size: 53.5 KiB (0%)
Title: Full
Language: English
Default: No
Forced: No

Menu
00:00:00.000: en: Chapitre 01
00:06:59.291: en: Chapitre 02
00:14:39.541: en: Chapitre 03
00:21:41.375: en: Chapitre 04
00:29:28.708: en: Chapitre 05
00:36:57.625: en: Chapitre 06
00:43:53.416: en: Chapitre 07
00:50:26.791: en: Chapitre 08
00:58:22.000: en: Chapitre 09
01:07:17.541: en: Chapitre 10
01:13:38.625: en: Chapitre 11
01:21:38.125: en: Chapitre 12

Другие фильмы
У данной публикации пока нет комментариев.
Будь первым, оставь своё мнение в комментариях!
Информация
Посетители, находящиеся в группе Гости, не могут оставлять комментарии к данной публикации.
Самый популярный релиз недели
Донаты
Мы в соц. сетях / RSS

Лучшие релизы месяца
Лучшие SD недели
Лучшие 720p недели
Лучшие 1080p недели
Лучшие 4K недели
Вы недавно смотрели
Реклама
Последние комментарии
...

Al1ksandr

21 июня 2024 21:02

...

Bonzo

14 июня 2024 14:52

...

rmzshka

13 июня 2024 17:48

...

rmzshka

13 июня 2024 12:24

...

LisNick

13 июня 2024 08:45

Реклама