+5

Иди ко мне, детка / She Came to Me (2023) BDRip 1080p от селезень | D

Информация о фильме
Название: Иди ко мне, детка
Оригинальное название: She Came to Me
Год выхода: 2023
Жанр: драма, мелодрама, комедия
Режиссер: Ребекка Миллер
В ролях: Питер Динклэйдж, Энн Хэтэуэй, Мариса Томей, Ивэн Эллисон, Харлоу Джейн, Йоанна Кулиг, Брайан Д’Арси Джеймс, Джуди Голд, Энтони Рот Костанзо, Сэмюэл Х. Ливайн

О фильме:
Композитор Стивен Лауддем переживает творческий кризис и никак не может закончить свою грандиозную оперу. По настоянию своей жены Патрисии, которая до этого была его психологом, Стивен пускается на поиски вдохновения и знакомится с Катриной. Он и представить не мог, к чему это приведет. «Иди ко мне, детка» (2023) — драмеди с Питером Динклэйджем и Энн Хэтэуэй в главных ролях.

Страна: США
Студия: Killer Films, Round Films, Somewhere Pictures
Продолжительность: 01:41:57
Перевод: Дублированный | Мосфильм-Мастер
Субтитры: Русские (Forced, 2xFull), Английские

Файл
Формат: Matroska
Качество: BDRip 1080p
Видео: 1920×1080 at 23.976 fps, [email protected], ~13000 kbps
Аудио 1: AC3, 6 ch, ~640 kbps — | Русский | Иди ко мне, детка / She Came to Me (2023) BDRip 1080p от селезень | D
Аудио 2: AC3, 6 ch, ~640 kbps — | Английский |
Формат субтитров: softsub (SRT)

Авторизуйтесь для получения доступа к скачиванию

Нет аккаунта? Регистрация открыта и займёт меньше минуты

Вход Регистрация

General
Unique ID: 23506192924252275941434523117867530553 (0×11AF20CA0E70A47926793C0983A47939)
Complete name: H: VideoHShe.Came.to.Me.2023.BDRip.1080p.seleZen.mkv
Format: Matroska
Format version: Version 4
File size: 10.2 GiB
Duration: 1 h 41 min
Overall bit rate: 14.3 Mb/s
Frame rate: 23.976 FPS
Movie name: She Came to Me 2023 from seleZen
Encoded date: 09.06.2024 22:12:40 UTC
Writing application: mkvmerge v80.0 ('Roundabout') 64-bit
Writing library: libebml v1.4.4 + libmatroska v1.7.1

Video
ID: 1
Format: AVC
Format/Info: Advanced Video Codec
Format profile: [email protected]
Format settings: CABAC / 4 Ref Frames
Format settings, CABAC: Yes
Format settings, Reference: 4 frames
Codec ID: V_MPEG4/ISO/AVC
Duration: 1 h 41 min
Bit rate: 13.0 Mb/s
Width: 1 920 pixels
Height: 1 080 pixels
Display aspect ratio: 16:9
Frame rate mode: Constant
Frame rate: 23.976 (24000/1001) FPS
Color space: YUV
Chroma subsampling: 4:2:0
Bit depth: 8 bits
Scan type: Progressive
Bits/(Pixel*Frame): 0.261
Stream size: 9.25 GiB (91%)
Writing library: x264 core 164 r3164 seleZen
Encoding settings: cabac=1 / ref=4 / deblock=1:-2:-2 / analyse=0×3:0×133 / me=umh / subme=11 / psy=1 / psy_rd=1.02:0.03 / mixed_ref=1 / me_range=48 / chroma_me=1 / trellis=2 / 8×8dct=1 / cqm=0 / deadzone=21,11 / fast_pskip=0 / chroma_qp_offset=-3 / threads=34 / lookahead_threads=8 / sliced_threads=0 / nr=0 / decimate=0 / interlaced=0 / bluray_compat=0 / constrained_intra=0 / bframes=10 / b_pyramid=2 / b_adapt=2 / b_bias=0 / direct=3 / weightb=1 / open_gop=0 / weightp=2 / keyint=240 / keyint_min=23 / scenecut=40 / intra_refresh=0 / rc_lookahead=60 / rc=2pass / mbtree=0 / bitrate=13000 / ratetol=1.0 / qcomp=0.60 / qpmin=0 / qpmax=51 / qpstep=4 / cplxblur=20.0 / qblur=0.5 / vbv_maxrate=50000 / vbv_bufsize=62500 / nal_hrd=none / filler=0 / ip_ratio=1.40 / pb_ratio=1.30 / aq=3:0.80
Language: English
Default: Yes
Forced: No

Audio #1
ID: 2
Format: AC-3
Format/Info: Audio Coding 3
Commercial name: Dolby Digital
Codec ID: A_AC3
Duration: 1 h 41 min
Bit rate mode: Constant
Bit rate: 640 kb/s
Channel (s): 6 channels
Channel layout: L R C LFE Ls Rs
Sampling rate: 48.0 kHz
Frame rate: 31.250 FPS (1536 SPF)
Compression mode: Lossy
Stream size: 467 MiB (4%)
Title: Dub
Language: Russian
Service kind: Complete Main
Default: Yes
Forced: No

Audio #2
ID: 3
ID in the original source m: 4352 (0×1100)
Format: AC-3
Format/Info: Audio Coding 3
Commercial name: Dolby Digital
Codec ID: A_AC3
Duration: 1 h 41 min
Bit rate mode: Constant
Bit rate: 640 kb/s
Channel (s): 6 channels
Channel layout: L R C LFE Ls Rs
Sampling rate: 48.0 kHz
Frame rate: 31.250 FPS (1536 SPF)
Compression mode: Lossy
Stream size: 467 MiB (4%)
Title: Original
Language: English
Service kind: Complete Main
Default: No
Forced: No
Original source medium: Blu-ray

Text #1
ID: 4
Format: UTF-8
Codec ID: S_TEXT/UTF8
Codec ID/Info: UTF-8 Plain Text
Duration: 1 h 24 min
Bit rate: 5 b/s
Frame rate: 0.014 FPS
Count of elements: 72
Stream size: 3.12 KiB (0%)
Title: Forced
Language: Russian
Default: Yes
Forced: No

Text #2
ID: 5
Format: UTF-8
Codec ID: S_TEXT/UTF8
Codec ID/Info: UTF-8 Plain Text
Duration: 1 h 35 min
Bit rate: 98 b/s
Frame rate: 0.256 FPS
Count of elements: 1473
Stream size: 69.5 KiB (0%)
Title: Full v.1
Language: Russian
Default: No
Forced: No

Text #3
ID: 6
Format: UTF-8
Codec ID: S_TEXT/UTF8
Codec ID/Info: UTF-8 Plain Text
Duration: 1 h 37 min
Bit rate: 95 b/s
Frame rate: 0.271 FPS
Count of elements: 1585
Stream size: 67.8 KiB (0%)
Title: Full v.2
Language: Russian
Default: No
Forced: No

Text #4
ID: 7
Format: UTF-8
Codec ID: S_TEXT/UTF8
Codec ID/Info: UTF-8 Plain Text
Duration: 1 h 12 min
Bit rate: 0 b/s
Frame rate: 0.001 FPS
Count of elements: 3
Stream size: 63.0 Bytes (0%)
Title: Forced
Language: English
Default: No
Forced: No

Text #5
ID: 8
Format: UTF-8
Codec ID: S_TEXT/UTF8
Codec ID/Info: UTF-8 Plain Text
Duration: 1 h 34 min
Bit rate: 67 b/s
Frame rate: 0.280 FPS
Count of elements: 1586
Stream size: 46.4 KiB (0%)
Title: Full
Language: English
Default: No
Forced: No

Text #6
ID: 9
Format: UTF-8
Codec ID: S_TEXT/UTF8
Codec ID/Info: UTF-8 Plain Text
Duration: 1 h 36 min
Bit rate: 69 b/s
Frame rate: 0.299 FPS
Count of elements: 1737
Stream size: 49.6 KiB (0%)
Title: SDH
Language: English
Default: No
Forced: No

Menu
00:00:00.000: en: chapter01
00:13:57.962: en: chapter02
00:29:03.742: en: chapter03
00:42:15.199: en: chapter04
00:55:35.457: en: chapter05
01:09:07.393: en: chapter06
01:23:02.852: en: chapter07
01:35:31.726: en: chapter08

Другие фильмы
У данной публикации пока нет комментариев.
Будь первым, оставь своё мнение в комментариях!
Информация
Посетители, находящиеся в группе Гости, не могут оставлять комментарии к данной публикации.
Самый популярный релиз недели
Донаты
Мы в соц. сетях / RSS

Лучшие релизы месяца
Лучшие SD недели
Лучшие 720p недели
Лучшие 1080p недели
Лучшие 4K недели
Вы недавно смотрели
Реклама
Последние комментарии
...

Al1ksandr

21 июня 2024 21:02

...

Bonzo

14 июня 2024 14:52

...

rmzshka

13 июня 2024 17:48

...

rmzshka

13 июня 2024 12:24

...

LisNick

13 июня 2024 08:45

Реклама