+3

Бекки в ярости / The Wrath of Becky (2023) BDRip 1080p от селезень | D

Информация о фильме
Название: Бекки в ярости
Оригинальное название: The Wrath of Becky
Год выхода: 2023
Жанр: Боевик, триллер
Режиссер: Мэтт Энджел, Сьюзен Кут
В ролях: Лулу Уилсон, Шонн Уильям Скотт, Дениз Бюрс, Джилл Ларсон, Майкл Сироу, Аарон Далла Вилла, Мэтт Энджел, Кортни Гейнс

О фильме:
Через два года после тех ужасных событий Бекки под опекой доброй пожилой женщины пытается наладить жизнь, но в их дом вламываются злоумышленники и похищают любимую собачку. Теперь Бекки придётся снова применить к негодяям старые добрые методы защиты дорогих ей людей.

Страна: США
Студия: BoulderLight Pictures, Fluffy Bear Studios, Media Finance Capital
Продолжительность: 01:24:10
Перевод: Дублированный | Lucky Production
Субтитры: Русские (Forced, Full), Английские (Full, SDH)

Файл
Формат: Matroska
Качество: BDRip 1080p | Исх.The Wrath of Becky 2023 1080p Blu-ray Remux AVC DTS-HD MA 7.1-HDT
Видео: 1920x800 at 24.000 fps, MPEG-4 AVC, ~10000 kbps
Аудио 1: AC3, 6 ch, ~448 kbps - | Русский | Бекки в ярости / The Wrath of Becky (2023) BDRip 1080p от селезень | D | Дублированный
Аудио 2: E-AC3, 6 ch, ~448 kbps - | Русский | | Дублированный
Аудио 3: AC3, 6 ch, ~640 kbps - | Английский | | Original
Формат субтитров: softsub (SRT)

Авторизуйтесь для получения доступа к скачиванию

Нет аккаунта? Регистрация открыта и займёт меньше минуты

Вход Регистрация

General
Unique ID: 209147331662973043035902407202646133445 (0×9D584F9615594832023F6AB9B9060AC5)
Complete name: H: VideoHThe.Wrath.of.Becky.2023.DUB.BDRip.1080p.x264.seleZen.mkv
Format: Matroska
Format version: Version 4
File size: 6.78 GiB
Duration: 1 h 24 min
Overall bit rate: 11.5 Mb/s
Frame rate: 24.000 FPS
Movie name: The.Wrath.of.Becky.2023.DUB.BDRip.1080p.x264.seleZen
Encoded date: 10.06.2024 12:26:15 UTC
Writing application: mkvmerge v80.0 ('Roundabout') 64-bit
Writing library: libebml v1.4.4 + libmatroska v1.7.1
Cover: Yes
Attachments: cover.jpg / small_cover.jpg

Video
ID: 1
Format: AVC
Format/Info: Advanced Video Codec
Format profile: [email protected]
Format settings: CABAC / 5 Ref Frames
Format settings, CABAC: Yes
Format settings, Reference: 5 frames
Codec ID: V_MPEG4/ISO/AVC
Duration: 1 h 24 min
Bit rate: 10 000 kb/s
Width: 1 920 pixels
Height: 800 pixels
Display aspect ratio: 2.40:1
Frame rate mode: Constant
Frame rate: 24.000 FPS
Color space: YUV
Chroma subsampling: 4:2:0
Bit depth: 8 bits
Scan type: Progressive
Bits/(Pixel*Frame): 0.271
Stream size: 5.87 GiB (87%)
Writing library: x264 core 164 r3164 seleZen
Encoding settings: cabac=1 / ref=5 / deblock=1:-2:-2 / analyse=0×3:0×133 / me=umh / subme=11 / psy=1 / psy_rd=1.02:0.02 / mixed_ref=1 / me_range=48 / chroma_me=1 / trellis=2 / 8×8dct=1 / cqm=0 / deadzone=21,11 / fast_pskip=0 / chroma_qp_offset=-3 / threads=25 / lookahead_threads=6 / sliced_threads=0 / nr=0 / decimate=0 / interlaced=0 / bluray_compat=0 / constrained_intra=0 / bframes=10 / b_pyramid=2 / b_adapt=2 / b_bias=0 / direct=3 / weightb=1 / open_gop=0 / weightp=2 / keyint=240 / keyint_min=23 / scenecut=40 / intra_refresh=0 / rc_lookahead=60 / rc=2pass / mbtree=0 / bitrate=10000 / ratetol=1.0 / qcomp=0.60 / qpmin=0 / qpmax=51 / qpstep=4 / cplxblur=20.0 / qblur=0.5 / vbv_maxrate=50000 / vbv_bufsize=62500 / nal_hrd=none / filler=0 / ip_ratio=1.40 / pb_ratio=1.30 / aq=3:0.80
Language: English
Default: Yes
Forced: No

Audio #1
ID: 2
Format: AC-3
Format/Info: Audio Coding 3
Commercial name: Dolby Digital
Codec ID: A_AC3
Duration: 1 h 24 min
Bit rate mode: Constant
Bit rate: 448 kb/s
Channel (s): 6 channels
Channel layout: L R C LFE Ls Rs
Sampling rate: 48.0 kHz
Frame rate: 31.250 FPS (1536 SPF)
Compression mode: Lossy
Stream size: 270 MiB (4%)
Title: DUB -Lucky Production
Language: Russian
Service kind: Complete Main
Default: Yes
Forced: No

Audio #2
ID: 3
Format: E-AC-3
Format/Info: Enhanced AC-3
Commercial name: Dolby Digital Plus
Codec ID: A_EAC3
Duration: 1 h 24 min
Bit rate mode: Constant
Bit rate: 448 kb/s
Channel (s): 6 channels
Channel layout: L R C LFE Ls Rs
Sampling rate: 48.0 kHz
Frame rate: 31.250 FPS (1536 SPF)
Compression mode: Lossy
Stream size: 270 MiB (4%)
Title: DUB -Lucky Production
Language: Russian
Service kind: Complete Main
Default: No
Forced: No

Audio #3
ID: 4
Format: AC-3
Format/Info: Audio Coding 3
Commercial name: Dolby Digital
Codec ID: A_AC3
Duration: 1 h 24 min
Bit rate mode: Constant
Bit rate: 640 kb/s
Channel (s): 6 channels
Channel layout: L R C LFE Ls Rs
Sampling rate: 48.0 kHz
Frame rate: 31.250 FPS (1536 SPF)
Compression mode: Lossy
Stream size: 385 MiB (6%)
Title: Original
Language: English
Service kind: Complete Main
Default: No
Forced: No

Text #1
ID: 5
Format: UTF-8
Codec ID: S_TEXT/UTF8
Codec ID/Info: UTF-8 Plain Text
Duration: 1 h 16 min
Bit rate: 2 b/s
Frame rate: 0.008 FPS
Count of elements: 36
Stream size: 1.41 KiB (0%)
Title: Forced -HDRezka Studio
Language: Russian
Default: No
Forced: No

Text #2
ID: 6
Format: UTF-8
Codec ID: S_TEXT/UTF8
Codec ID/Info: UTF-8 Plain Text
Duration: 1 h 18 min
Bit rate: 79 b/s
Frame rate: 0.228 FPS
Count of elements: 1080
Stream size: 45.9 KiB (0%)
Title: Full -Кинопоиск HD
Language: Russian
Default: No
Forced: No

Text #3
ID: 7
Format: UTF-8
Codec ID: S_TEXT/UTF8
Codec ID/Info: UTF-8 Plain Text
Duration: 1 h 18 min
Bit rate: 55 b/s
Frame rate: 0.232 FPS
Count of elements: 1100
Stream size: 32.2 KiB (0%)
Title: Full
Language: English
Default: No
Forced: No

Text #4
ID: 8
Format: UTF-8
Codec ID: S_TEXT/UTF8
Codec ID/Info: UTF-8 Plain Text
Duration: 1 h 23 min
Bit rate: 60 b/s
Frame rate: 0.268 FPS
Count of elements: 1334
Stream size: 37.0 KiB (0%)
Title: SDH
Language: English
Default: No
Forced: No

Menu
00:00:00.000: en: Chapter 01
00:06:17.208: en: Chapter 02
00:14:53.166: en: Chapter 03
00:21:51.625: en: Chapter 04
00:27:37.458: en: Chapter 05
00:35:01.500: en: Chapter 06
00:42:45.500: en: Chapter 07
00:48:24.083: en: Chapter 08
00:55:23.708: en: Chapter 09
01:03:03.625: en: Chapter 10
01:10:28.333: en: Chapter 11
01:20:57.791: en: Chapter 12

Другие фильмы
У данной публикации пока нет комментариев.
Будь первым, оставь своё мнение в комментариях!
Информация
Посетители, находящиеся в группе Гости, не могут оставлять комментарии к данной публикации.
Самый популярный релиз недели
Донаты
Мы в соц. сетях / RSS

Лучшие релизы месяца
Лучшие SD недели
Лучшие 720p недели
Лучшие 1080p недели
Лучшие 4K недели
Вы недавно смотрели
Реклама
Последние комментарии
...

Al1ksandr

21 июня 2024 21:02

...

Bonzo

14 июня 2024 14:52

...

rmzshka

13 июня 2024 17:48

...

rmzshka

13 июня 2024 12:24

...

LisNick

13 июня 2024 08:45

Реклама