+21

Презумпция невиновности / Presumed Innocent [01х01-06 из 08] (2024) WEB-DLRip 720p от DoMiNo & селезень | HDrezka Studio

Информация о фильме
Название: Презумпция невиновности
Оригинальное название: Presumed Innocent
Год выхода: 2024
Жанр: драма, криминал, детектив
Режиссёр: Грег Яйтанс, Анне Севитски
В ролях: Джейк Джилленхол, Рут Негга, Билл Кэмп, Ренате Реинсве, Питер Сарсгаард, Кингстон Руми Сауфвик, Элизабет Марвел, Нома Думезвени

О фильме:
Расти Сабич работает окружным прокурором в Чикаго. Несмотря на то, что у него есть жена, мужчина заводит тайный роман со своей коллегой, Каролин Полхемус. Его жизнь переворачивается с ног на голову, когда в прокуратуру поступает дело об ужасающем убийстве Каролин, и Расти поручают его расследование. Пытаясь сохранить в тайне специфику своих отношений с жертвой, чтобы спасти свой брак, Расти только усугубляет положение и вскоре становится главным подозреваемым в убийстве.

Страна: США
Студия: Apple Studios, Bad Robot
Продолжительность: ~00:45:00 серия
Перевод: Профессиональный (многоголосый, закадровый) | HDRezka Studio
Субтитры: Russian (Forced, Full, SDH), English (Full, SDH)

Файл
Формат: Matroska
Качество: WEB-DLRip 720p
Видео: 1280x640 at 23.976 fps, [email protected], ~2428 kbps
Аудио 1: AAC, 2 ch, ~128 kbps - | Русский | Презумпция невиновности / Presumed Innocent [01х01-06 из 08] (2024) WEB-DLRip 720p от DoMiNo & селезень | HDrezka Studio | HDRezka Studio
Аудио 2: AAC, 2 ch, ~128 kbps - | Русский | | HDRezka Studio 18 +
Формат субтитров: softsub (SRT)

Авторизуйтесь для получения доступа к скачиванию

Нет аккаунта? Регистрация открыта и займёт меньше минуты

Вход Регистрация

x264 [info]: frame I: 456 Avg QP: 15.56 size: 69574
x264 [info]: frame P: 12161 Avg QP: 16.96 size: 27853
x264 [info]: frame B: 53352 Avg QP: 18.92 size: 8708

General
Unique ID: 324067505229629860618795782284375589225 (0xF3CD21987358BA4148A1B37DD0A98169)
Complete name: E: Presumed.Innocent.S01.2024.ATVP.WEB-DLRip.720p.x264.seleZenPresumed.Innocent.S01E01.WEB-DLRip.720p.x264.seleZen.mkv
Format: Matroska
Format version: Version 4
File size: 880 MiB
Duration: 45 min 51 s
Overall bit rate: 2 683 kb/s
Frame rate: 23.976 FPS
Movie name: Presumed.Innocent.S01E01.WEB-DLRip.720p.x264.seleZen
Encoded date: 14.06.2024 11:39:06 UTC
Writing application: mkvmerge v85.0 ('Shame For You') 64-bit
Writing library: libebml v1.4.5 + libmatroska v1.7.1
Cover: Yes
Attachments: cover.jpg / small_cover.jpg

Video
ID: 1
Format: AVC
Format/Info: Advanced Video Codec
Format profile: [email protected]
Format settings: CABAC / 5 Ref Frames
Format settings, CABAC: Yes
Format settings, Reference: 5 frames
Codec ID: V_MPEG4/ISO/AVC
Duration: 45 min 51 s
Bit rate: 2 428 kb/s
Width: 1 280 pixels
Height: 640 pixels
Display aspect ratio: 2.000
Frame rate mode: Constant
Frame rate: 23.976 (24000/1001) FPS
Color space: YUV
Chroma subsampling: 4:2:0
Bit depth: 8 bits
Scan type: Progressive
Bits/(Pixel*Frame): 0.124
Stream size: 796 MiB (90%)
Title: -=DoMiNo=-
Writing library: x264 core 164 r3191 -DoMiNo
Encoding settings: cabac=1 / ref=5 / deblock=1:-2:-1 / analyse=0×3:0×133 / me=umh / subme=10 / psy=1 / psy_rd=1.00:0.15 / mixed_ref=1 / me_range=32 / chroma_me=1 / trellis=2 / 8×8dct=1 / cqm=0 / deadzone=21,11 / fast_pskip=0 / chroma_qp_offset=-3 / threads=20 / lookahead_threads=5 / sliced_threads=0 / nr=0 / decimate=1 / interlaced=0 / bluray_compat=0 / constrained_intra=0 / bframes=12 / b_pyramid=2 / b_adapt=2 / b_bias=0 / direct=3 / weightb=1 / open_gop=0 / weightp=2 / keyint=250 / keyint_min=23 / scenecut=40 / intra_refresh=0 / rc_lookahead=60 / rc=crf / mbtree=0 / crf=20.0 / qcomp=0.60 / qpmin=0 / qpmax=69 / qpstep=4 / vbv_maxrate=50000 / vbv_bufsize=62500 / crf_max=0.0 / nal_hrd=none / filler=0 / ip_ratio=1.40 / pb_ratio=1.30 / aq=1:0.90
Language: English
Default: Yes
Forced: No
Color range: Limited
Color primaries: BT.709
Transfer characteristics: BT.709
Matrix coefficients: BT.709

Audio #1
ID: 2
Format: AAC LC
Format/Info: Advanced Audio Codec Low Complexity
Codec ID: A_AAC-2
Duration: 45 min 51 s
Bit rate: 125 kb/s
Channel (s): 2 channels
Channel layout: L R
Sampling rate: 48.0 kHz
Frame rate: 46.875 FPS (1024 SPF)
Compression mode: Lossy
Stream size: 41.1 MiB (5%)
Title: MVO [HDRezka Studio]
Language: Russian
Default: Yes
Forced: No

Audio #2
ID: 3
Format: AAC LC
Format/Info: Advanced Audio Codec Low Complexity
Codec ID: A_AAC-2
Duration: 45 min 51 s
Bit rate: 125 kb/s
Channel (s): 2 channels
Channel layout: L R
Sampling rate: 48.0 kHz
Frame rate: 46.875 FPS (1024 SPF)
Compression mode: Lossy
Stream size: 41.1 MiB (5%)
Title: MVO [HDRezka Studio] 18+
Default: No
Forced: No

Text #1
ID: 4
Format: UTF-8
Codec ID: S_TEXT/UTF8
Codec ID/Info: UTF-8 Plain Text
Duration: 32 min 3 s
Bit rate: 0 b/s
Frame rate: 0.001 FPS
Count of elements: 2
Stream size: 118 Bytes (0%)
Title: Forced
Language: Russian
Default: No
Forced: No

Text #2
ID: 5
Format: UTF-8
Codec ID: S_TEXT/UTF8
Codec ID/Info: UTF-8 Plain Text
Duration: 44 min 40 s
Bit rate: 101 b/s
Frame rate: 0.218 FPS
Count of elements: 583
Stream size: 33.1 KiB (0%)
Title: Full [Apple TV+]
Language: Russian
Default: No
Forced: No

Text #3
ID: 6
Format: UTF-8
Codec ID: S_TEXT/UTF8
Codec ID/Info: UTF-8 Plain Text
Duration: 44 min 40 s
Bit rate: 111 b/s
Frame rate: 0.240 FPS
Count of elements: 642
Stream size: 36.6 KiB (0%)
Title: SDH [Apple TV+]
Language: Russian
Default: No
Forced: No

Text #4
ID: 7
Format: UTF-8
Codec ID: S_TEXT/UTF8
Codec ID/Info: UTF-8 Plain Text
Duration: 43 min 4 s
Bit rate: 68 b/s
Frame rate: 0.228 FPS
Count of elements: 590
Stream size: 21.7 KiB (0%)
Title: Full
Language: English
Default: No
Forced: No

Text #5
ID: 8
Format: UTF-8
Codec ID: S_TEXT/UTF8
Codec ID/Info: UTF-8 Plain Text
Duration: 43 min 4 s
Bit rate: 75 b/s
Frame rate: 0.251 FPS
Count of elements: 649
Stream size: 23.8 KiB (0%)
Title: SDH
Language: English
Default: No
Forced: No

Menu
00:00:00.000: en: Studio Logo
00:00:08.843: en: Main
00:44:06.666: en: Credits

Другие фильмы
У данной публикации пока нет комментариев.
Будь первым, оставь своё мнение в комментариях!
Информация
Посетители, находящиеся в группе Гости, не могут оставлять комментарии к данной публикации.
Самый популярный релиз недели
Донаты
Мы в соц. сетях / RSS

Лучшие релизы месяца
Лучшие SD недели
Лучшие 720p недели
Лучшие 1080p недели
Лучшие 4K недели
Вы недавно смотрели
Реклама
Последние комментарии
...

fataxdd

16 июля 2024 07:13

...

Rustik99

12 июля 2024 10:11

...

Rograr

6 июля 2024 19:56

...

fenix

2 июля 2024 07:45

...

Fidelrus

28 июня 2024 13:53

Реклама