+3

Мёртвые не причиняют боли / The Dead Don't Hurt (2023) WEB-DL 1080p от селезень | D | Локализованная версия

Информация о фильме
Название: Мёртвые не причиняют боли
Оригинальное название: The Dead Don't Hurt
Год выхода: 2023
Жанр: вестерн, драма, мелодрама
Режиссер: Вигго Мортенсен
В ролях: Вики Крипс, Вигго Мортенсен, Солли Маклауд, Гаррет Диллахант, У. Эрл Браун, Дэнни Хьюстон, Шэйн Грэм, Рафел Плана, Алекс Бро, Джейсон Кларк

О фильме: 1860-е. Мечты Вивиан и ее мужа Хольгера о светлом будущем разрушены войной. В эти сложные времена супруги пытаются сохранить свою любовь.

Страна: США, Мексика, Великобритания
Студия: Perceval Pictures, Recorded Picture Company (RPC), Talipot Studio
Продолжительность: 02:09:19
Перевод: Дублированный | CPI Films

Качество: WEB-DL 1080p
Видео: MPEG-4 AVC, 1920x804, 6000 Kbit/s, 24.000 fps
Аудио #01: 48 kHz, AC3, 5.1, 448 Kbps | Дублированный | CPI Films | RUS |Мёртвые не причиняют боли / The Dead Don't Hurt (2023) WEB-DL 1080p от селезень | D | Локализованная версия
Аудио #02: 48 kHz, E-AC3, 5.1, 448 Kbps | Дублированный | CPI Films | RUS |
Субтитры: Русские (forced - hardsub)

Мёртвые не причиняют боли / The Dead Don't Hurt (2023) WEB-DL 1080p от селезень | D | Локализованная версия

Авторизуйтесь для получения доступа к скачиванию

Нет аккаунта? Регистрация открыта и займёт меньше минуты

Вход Регистрация

General
Unique ID : 288765433049231564673879774092623221924 (0xD93E330E968BAAF631729A46B6CA14A4)
Complete name : E:\WorkE\The.Dead.Dont.Hurt.2023.WEB-DL.1080p.seleZen.mkv
Format : Matroska
Format version : Version 4
File size : 6.19 GiB
Duration : 2 h 9 min
Overall bit rate : 6 853 kb/s
Frame rate : 24.000 FPS
Movie name : The Dead Don't Hurt (2023) from seleZen
Encoded date : 2024-06-19 23:39:56 UTC
Writing application : mkvmerge v85.0 ('Shame For You') 64-bit
Writing library : libebml v1.4.5 + libmatroska v1.7.1

Video
ID : 1
Format : AVC
Format/Info : Advanced Video Codec
Format profile : Progressive High@L4
Format settings : CABAC / 5 Ref Frames
Format settings, CABAC : Yes
Format settings, Reference : 5 frames
Codec ID : V_MPEG4/ISO/AVC
Duration : 2 h 9 min
Bit rate : 6 000 kb/s
Width : 1 920 pixels
Height : 804 pixels
Display aspect ratio : 2.39:1
Frame rate mode : Constant
Frame rate : 24.000 FPS
Color space : YUV
Chroma subsampling : 4:2:0
Bit depth : 8 bits
Scan type : Progressive
Bits/(Pixel*Frame) : 0.162
Stream size : 5.38 GiB (87%)
Writing library : x264 core 157
Encoding settings : cabac=1 / ref=5 / deblock=1:0:0 / analyse=0x3:0x133 / me=umh / subme=10 / psy=1 / psy_rd=1.00:0.00 / mixed_ref=1 / me_range=24 / chroma_me=1 / trellis=2 / 8x8dct=1 / cqm=0 / deadzone=21,11 / fast_pskip=1 / chroma_qp_offset=-2 / threads=25 / lookahead_threads=4 / sliced_threads=0 / nr=0 / decimate=1 / interlaced=0 / bluray_compat=0 / stitchable=1 / constrained_intra=0 / bframes=8 / b_pyramid=2 / b_adapt=2 / b_bias=0 / direct=3 / weightb=1 / open_gop=0 / weightp=2 / keyint=250 / keyint_min=24 / scenecut=40 / intra_refresh=0 / rc_lookahead=60 / rc=2pass / mbtree=1 / bitrate=6000 / ratetol=1.0 / qcomp=0.60 / qpmin=0 / qpmax=69 / qpstep=4 / cplxblur=20.0 / qblur=0.5 / vbv_maxrate=6600 / vbv_bufsize=12000 / nal_hrd=none / filler=0 / ip_ratio=1.40 / aq=1:1.00
Language : English
Default : Yes
Forced : No

Audio #1
ID : 2
Format : AC-3
Format/Info : Audio Coding 3
Commercial name : Dolby Digital
Codec ID : A_AC3
Duration : 2 h 9 min
Bit rate mode : Constant
Bit rate : 448 kb/s
Channel(s) : 6 channels
Channel layout : L R C LFE Ls Rs
Sampling rate : 48.0 kHz
Frame rate : 31.250 FPS (1536 SPF)
Compression mode : Lossy
Stream size : 414 MiB (7%)
Title : Dub
Language : Russian
Service kind : Complete Main
Default : Yes
Forced : No
AC3_metadata cmixlev : -3.0 dB
surmixlev : -6 dB

Audio #2
ID : 3
Format : E-AC-3
Format/Info : Enhanced AC-3
Commercial name : Dolby Digital Plus
Codec ID : A_EAC3
Duration : 2 h 9 min
Bit rate mode : Constant
Bit rate : 448 kb/s
Channel(s) : 6 channels
Channel layout : L R C LFE Ls Rs
Sampling rate : 48.0 kHz
Frame rate : 31.250 FPS (1536 SPF)
Bit depth : 32 bits
Compression mode : Lossy
Stream size : 414 MiB (7%)
Title : Dub
Language : Russian
Service kind : Complete Main
Default : No
Forced : No

Другие фильмы
У данной публикации пока нет комментариев.
Будь первым, оставь своё мнение в комментариях!
Информация
Посетители, находящиеся в группе Гости, не могут оставлять комментарии к данной публикации.
Самый популярный релиз недели
Донаты
Мы в соц. сетях / RSS

Лучшие релизы месяца
Лучшие SD недели
Лучшие 720p недели
Лучшие 1080p недели
Лучшие 4K недели
Вы недавно смотрели
Реклама
Последние комментарии
...

fataxdd

16 июля 2024 07:13

...

Rustik99

12 июля 2024 10:11

...

Rograr

6 июля 2024 19:56

...

fenix

2 июля 2024 07:45

...

Fidelrus

28 июня 2024 13:53

Реклама