+11

Охотники за привидениями: Леденящий ужас / Ghostbusters: Frozen Empire (2024) UHD BDRemux 2160p от селезень | 4K | HDR | Dolby Vision Profile 7 | D

Информация о фильме
Название: Охотники за привидениями: Леденящий ужас
Оригинальное название: Ghostbusters: Frozen Empire
Год выхода: 2024
Жанр: фантастика, фэнтези, комедия, приключения
Режиссер: Гил Кинан
В ролях: Пол Радд, Кэрри Кун, Финн Вулфхард, Маккенна Грейс, Кумэйл Нанджиани, Пэттон Освальт, Селеста О'Коннор, Логан Ким, Эмили Элин Линд, Джеймс Акастер

О фильме: Семья Спенглеров возвращается в легендарную пожарную часть в Нью-Йорке.

Страна: США, Канада, Великобритания
Студия: Bron Studios, Columbia Pictures Corporation, Ghostcorps, Right of Way Films, Sony Pictures Entertainment (SPE), The Montecito Picture Company
Продолжительность: 02:01:36
Перевод: Дублированный | MovieDalen

Качество: BDRemux 2160p
Видео: 3840x2160 at 23.976 fps, MPEG-H HEVC HDR Video ~ 77600 kbps avg
Аудио #01: 48 kHz, AC3, 5.1, 384 Kbps | Дублированный | MovieDalen | RUS |Охотники за привидениями: Леденящий ужас / Ghostbusters: Frozen Empire (2024) UHD BDRemux 2160p от селезень | 4K | HDR | Dolby Vision Profile 7 | D
Аудио #02: 48 kHz, TrueHD, 7.1, 4406 Kbps | Оригинал | ENG |
Аудио #03: 48 kHz, AC3, 5.1, 640 Kbps | Оригинал | ENG |
Субтитры: Русские (Forced, full), украинские, английские

Охотники за привидениями: Леденящий ужас / Ghostbusters: Frozen Empire (2024) UHD BDRemux 2160p от селезень | 4K | HDR | Dolby Vision Profile 7 | D

Авторизуйтесь для получения доступа к скачиванию

Нет аккаунта? Регистрация открыта и займёт меньше минуты

Вход Регистрация

General
Unique ID : 117136568345405464731473826364522490027 (0x581FAEB56E58156FEEA6FD96481FE8AB)
Complete name : H:\VideoH\Ghostbusters.Frozen.Empire.2024.BDREMUX.2160p.HDR.DVP7.seleZen.mkv
Format : Matroska
Format version : Version 4
File size : 66.8 GiB
Duration : 1 h 55 min
Overall bit rate mode : Variable
Overall bit rate : 83.1 Mb/s
Frame rate : 23.976 FPS
Movie name : Ghostbusters: Frozen Empire 2024 from seleZen
Encoded date : 2024-06-20 17:34:04 UTC
Writing application : mkvmerge v85.0 ('Shame For You') 64-bit
Writing library : libebml v1.4.5 + libmatroska v1.7.1

Video
ID : 1
ID in the original source m : 4113 (0x1011)
Format : HEVC
Format/Info : High Efficiency Video Coding
Format profile : Main [email protected]@High
HDR format : Dolby Vision, Version 1.0, Profile 7.6, dvhe.07.06, BL+EL+RPU, no metadata compression, Blu-ray compatible / SMPTE ST 2086, Version HDR10, HDR10 compatible
Codec ID : V_MPEGH/ISO/HEVC
Duration : 1 h 55 min
Bit rate : 77.6 Mb/s
Width : 3 840 pixels
Height : 2 160 pixels
Display aspect ratio : 16:9
Frame rate mode : Constant
Frame rate : 23.976 (24000/1001) FPS
Color space : YUV
Chroma subsampling : 4:2:0 (Type 2)
Bit depth : 10 bits
Bits/(Pixel*Frame) : 0.390
Stream size : 62.4 GiB (93%)
Language : English
Default : No
Forced : No
Color range : Limited
Color primaries : BT.2020
Transfer characteristics : PQ
Matrix coefficients : BT.2020 non-constant
Mastering display color pri : Display P3
Mastering display luminance : min: 0.0001 cd/m2, max: 1000 cd/m2
Maximum Content Light Level : 877 cd/m2
Maximum Frame-Average Light : 180 cd/m2
Original source medium : Blu-ray

Audio #1
ID : 2
Format : AC-3
Format/Info : Audio Coding 3
Commercial name : Dolby Digital
Codec ID : A_AC3
Duration : 1 h 55 min
Bit rate mode : Constant
Bit rate : 384 kb/s
Channel(s) : 6 channels
Channel layout : L R C LFE Ls Rs
Sampling rate : 48.0 kHz
Frame rate : 31.250 FPS (1536 SPF)
Compression mode : Lossy
Stream size : 316 MiB (0%)
Title : Dub
Language : Russian
Service kind : Complete Main
Default : Yes
Forced : No
Dialog Normalization : -31 dB
compr : -0.28 dB
cmixlev : -3.0 dB
surmixlev : -3 dB
dmixmod : Lo/Ro
ltrtcmixlev : -3.0 dB
ltrtsurmixlev : -3.0 dB
lorocmixlev : -3.0 dB
lorosurmixlev : -3.0 dB
dialnorm_Average : -31 dB
dialnorm_Minimum : -31 dB
dialnorm_Maximum : -31 dB

Audio #2
ID : 3
ID in the original source m : 4352 (0x1100)
Format : MLP FBA 16-ch
Format/Info : Meridian Lossless Packing FBA with 16-channel presentation
Commercial name : Dolby TrueHD with Dolby Atmos
Codec ID : A_TRUEHD
Duration : 1 h 55 min
Bit rate mode : Variable
Bit rate : 4 406 kb/s
Maximum bit rate : 7 623 kb/s
Channel(s) : 8 channels
Channel layout : L R C LFE Ls Rs Lb Rb
Sampling rate : 48.0 kHz
Frame rate : 1 200.000 FPS (40 SPF)
Bit depth : 24 bits
Compression mode : Lossless
Stream size : 3.54 GiB (5%)
Title : Original
Language : English
Default : No
Forced : No
Original source medium : Blu-ray
Number of dynamic objects : 11
Bed channel count : 1 channel
Bed channel configuration : LFE
mixlevel : 80 dB
ltrtcmixlev : 3.0 dB
ltrtsurmixlev : 3.0 dB
lorocmixlev : 3.0 dB
lorosurmixlev : 3.0 dB

Audio #3
ID : 4
ID in the original source m : 4352 (0x1100)
Format : AC-3
Format/Info : Audio Coding 3
Commercial name : Dolby Digital
Codec ID : A_AC3
Duration : 1 h 55 min
Bit rate mode : Constant
Bit rate : 640 kb/s
Channel(s) : 6 channels
Channel layout : L R C LFE Ls Rs
Sampling rate : 48.0 kHz
Frame rate : 31.250 FPS (1536 SPF)
Compression mode : Lossy
Stream size : 527 MiB (1%)
Language : English
Service kind : Complete Main
Default : No
Forced : No
Original source medium : Blu-ray
Dialog Normalization : -31 dB
compr : -0.28 dB
cmixlev : -3.0 dB
surmixlev : -3 dB
dialnorm_Average : -31 dB
dialnorm_Minimum : -31 dB
dialnorm_Maximum : -31 dB

Text #1
ID : 5
Format : UTF-8
Codec ID : S_TEXT/UTF8
Codec ID/Info : UTF-8 Plain Text
Duration : 1 h 53 min
Bit rate : 1 b/s
Frame rate : 0.004 FPS
Count of elements : 28
Stream size : 1.47 KiB (0%)
Title : Forced
Language : Russian
Default : Yes
Forced : No

Text #2
ID : 6
Format : UTF-8
Codec ID : S_TEXT/UTF8
Codec ID/Info : UTF-8 Plain Text
Duration : 1 h 53 min
Bit rate : 85 b/s
Frame rate : 0.192 FPS
Count of elements : 1310
Stream size : 71.4 KiB (0%)
Title : Full
Language : Russian
Default : No
Forced : No

Text #3
ID : 7
Format : UTF-8
Codec ID : S_TEXT/UTF8
Codec ID/Info : UTF-8 Plain Text
Duration : 1 h 53 min
Bit rate : 88 b/s
Frame rate : 0.194 FPS
Count of elements : 1328
Stream size : 73.8 KiB (0%)
Title : Full
Language : Ukrainian
Default : No
Forced : No

Text #4
ID : 8
Format : UTF-8
Codec ID : S_TEXT/UTF8
Codec ID/Info : UTF-8 Plain Text
Duration : 1 h 53 min
Bit rate : 66 b/s
Frame rate : 0.288 FPS
Count of elements : 1967
Stream size : 55.1 KiB (0%)
Title : SDH
Language : English
Default : No
Forced : No

Menu
00:00:00.000 : en:Chapter 01
00:04:22.553 : en:Chapter 02
00:11:30.356 : en:Chapter 03
00:18:26.980 : en:Chapter 04
00:24:34.389 : en:Chapter 05
00:29:57.420 : en:Chapter 06
00:36:15.214 : en:Chapter 07
00:44:59.988 : en:Chapter 08
00:52:25.433 : en:Chapter 09
00:58:00.935 : en:Chapter 10
01:05:09.238 : en:Chapter 11
01:11:35.082 : en:Chapter 12
01:20:16.728 : en:Chapter 13
01:25:24.619 : en:Chapter 14
01:33:13.004 : en:Chapter 15
01:43:44.801 : en:Chapter 16

Другие фильмы
У данной публикации пока нет комментариев.
Будь первым, оставь своё мнение в комментариях!
Информация
Посетители, находящиеся в группе Гости, не могут оставлять комментарии к данной публикации.
Самый популярный релиз недели
Донаты
Мы в соц. сетях / RSS

Лучшие релизы месяца
Лучшие SD недели
Лучшие 720p недели
Лучшие 1080p недели
Лучшие 4K недели
Вы недавно смотрели
Реклама
Последние комментарии
...

fataxdd

16 июля 2024 07:13

...

Rustik99

12 июля 2024 10:11

...

Rograr

6 июля 2024 19:56

...

fenix

2 июля 2024 07:45

...

Fidelrus

28 июня 2024 13:53

Реклама