+3

Охотники за привидениями: Леденящий ужас / Ghostbusters: Frozen Empire (2024) BDRip 1080p от селезень | D

Информация о фильме
Название: Охотники за привидениями: Леденящий ужас
Оригинальное название: Ghostbusters: Frozen Empire
Год выпуска: 2024
Жанр: фантастика, фэнтези, комедия, приключения
Режиссер: Гил Кинан / Gil Kenan
В ролях: Пол Радд, Кэрри Кун, Финн Вулфхард, Маккенна Грейс, Кумэйл Нанджиани, Пэттон Освальт, Селеста О’Коннор, Логан Ким, Эмили Элин Линд, Джеймс Акастер

О фильме:
После событий в Оклахоме Спенглеры возвращаются туда, где все началось, — в легендарную пожарную часть Нью-Йорка. Юным охотникам за привидениями, их маме и мистеру Груберсону предстоит объединиться со своими предшественниками, создавшими сверхсекретную исследовательскую лабораторию, благодаря которой борьба с нечистью вышла на новый уровень. Но обнаружив древний артефакт, герои высвобождают новое зло. Нью-Йорк превращается в ледяную империю прямо посреди июля. Охотники за привидениями должны сделать все, чтобы спасти мир от второго ледникового периода.

Выпущено: США, Канада, Великобритания / Columbia Pictures, Ghostcorps
Продолжительность: 01:55:06
Перевод: Профессиональный (полное дублирование) | MovieDalen
Субтитры: Русские (Forced, Full), английские, украинские

Файл
Формат: Matroska
Качество: BDRip 1080p [Исх.Ghostbusters Frozen Empire 2024 BluRay 1080p TrueHD Atmos 7 1 AVC HYBRID REMUX-FraMeSToR]
Видео: 1920x804 at 23.976 fps, [email protected], ~10000 kbps
Аудио 1: AC3, 6 ch, 384 kbps - русский (MovieDalen) - официальный
Аудио 2: AC3, 6 ch, 640 kbps - английский
Формат субтитров: softsub (SRT)

Авторизуйтесь для получения доступа к скачиванию

Нет аккаунта? Регистрация открыта и займёт меньше минуты

Вход Регистрация

General
Unique ID: 118503464512286338482878189554104822866 (0×5926EFE49780FD8CC04D382419686C52)
Complete name: H: VideoHGhostbusters.Frozen.Empire.2024.BDRip.1080p.seleZen.mkv
Format: Matroska
Format version: Version 4
File size: 8.86 GiB
Duration: 1 h 55 min
Overall bit rate: 11.0 Mb/s
Frame rate: 23.976 FPS
Movie name: Ghostbusters: Frozen Empire (2024) from seleZen
Encoded date: 20.06.2024 16:49:17 UTC
Writing application: mkvmerge v85.0 ('Shame For You') 64-bit
Writing library: libebml v1.4.5 + libmatroska v1.7.1

Video
ID: 1
Format: AVC
Format/Info: Advanced Video Codec
Format profile: [email protected]
Format settings: CABAC / 5 Ref Frames
Format settings, CABAC: Yes
Format settings, Reference: 5 frames
Codec ID: V_MPEG4/ISO/AVC
Duration: 1 h 55 min
Bit rate: 10 000 kb/s
Width: 1 920 pixels
Height: 804 pixels
Display aspect ratio: 2.39:1
Frame rate mode: Constant
Frame rate: 23.976 (24000/1001) FPS
Color space: YUV
Chroma subsampling: 4:2:0
Bit depth: 8 bits
Scan type: Progressive
Bits/(Pixel*Frame): 0.270
Stream size: 8.04 GiB (91%)
Writing library: x264 core 164 r3164 seleZen
Encoding settings: cabac=1 / ref=5 / deblock=1:-2:-2 / analyse=0×3:0×133 / me=umh / subme=10 / psy=1 / psy_rd=1.03:0.03 / mixed_ref=1 / me_range=32 / chroma_me=1 / trellis=2 / 8×8dct=1 / cqm=0 / deadzone=21,11 / fast_pskip=0 / chroma_qp_offset=-3 / threads=25 / lookahead_threads=4 / sliced_threads=0 / nr=0 / decimate=0 / interlaced=0 / bluray_compat=0 / constrained_intra=0 / bframes=9 / b_pyramid=2 / b_adapt=2 / b_bias=0 / direct=3 / weightb=1 / open_gop=0 / weightp=2 / keyint=240 / keyint_min=23 / scenecut=40 / intra_refresh=0 / rc_lookahead=60 / rc=2pass / mbtree=0 / bitrate=10000 / ratetol=1.0 / qcomp=0.60 / qpmin=0 / qpmax=51 / qpstep=4 / cplxblur=20.0 / qblur=0.5 / vbv_maxrate=50000 / vbv_bufsize=62500 / nal_hrd=none / filler=0 / ip_ratio=1.40 / pb_ratio=1.30 / aq=3:0.80
Language: English
Default: Yes
Forced: No

Audio #1
ID: 2
Format: AC-3
Format/Info: Audio Coding 3
Commercial name: Dolby Digital
Codec ID: A_AC3
Duration: 1 h 55 min
Bit rate mode: Constant
Bit rate: 384 kb/s
Channel (s): 6 channels
Channel layout: L R C LFE Ls Rs
Sampling rate: 48.0 kHz
Frame rate: 31.250 FPS (1536 SPF)
Compression mode: Lossy
Stream size: 316 MiB (3%)
Title: Dub
Language: Russian
Service kind: Complete Main
Default: Yes
Forced: No
Dialog Normalization: -31 dB
compr: -0.28 dB
cmixlev: -3.0 dB
surmixlev: -3 dB
dmixmod: Lo/Ro
ltrtcmixlev: -3.0 dB
ltrtsurmixlev: -3.0 dB
lorocmixlev: -3.0 dB
lorosurmixlev: -3.0 dB
dialnorm_Average: -31 dB
dialnorm_Minimum: -31 dB
dialnorm_Maximum: -31 dB

Audio #2
ID: 3
Format: AC-3
Format/Info: Audio Coding 3
Commercial name: Dolby Digital
Codec ID: A_AC3
Duration: 1 h 55 min
Bit rate mode: Constant
Bit rate: 640 kb/s
Channel (s): 6 channels
Channel layout: L R C LFE Ls Rs
Sampling rate: 48.0 kHz
Frame rate: 31.250 FPS (1536 SPF)
Compression mode: Lossy
Stream size: 527 MiB (6%)
Title: Original
Language: English
Service kind: Complete Main
Default: No
Forced: No
Dialog Normalization: -31 dB
compr: -0.28 dB
cmixlev: -3.0 dB
surmixlev: -3 dB
dialnorm_Average: -31 dB
dialnorm_Minimum: -31 dB
dialnorm_Maximum: -31 dB

Text #1
ID: 4
Format: UTF-8
Codec ID: S_TEXT/UTF8
Codec ID/Info: UTF-8 Plain Text
Duration: 1 h 53 min
Bit rate: 1 b/s
Frame rate: 0.004 FPS
Count of elements: 28
Stream size: 1.47 KiB (0%)
Title: Forced
Language: Russian
Default: Yes
Forced: No

Text #2
ID: 5
Format: UTF-8
Codec ID: S_TEXT/UTF8
Codec ID/Info: UTF-8 Plain Text
Duration: 1 h 53 min
Bit rate: 85 b/s
Frame rate: 0.192 FPS
Count of elements: 1310
Stream size: 71.4 KiB (0%)
Title: Full
Language: Russian
Default: No
Forced: No

Text #3
ID: 6
Format: UTF-8
Codec ID: S_TEXT/UTF8
Codec ID/Info: UTF-8 Plain Text
Duration: 1 h 53 min
Bit rate: 88 b/s
Frame rate: 0.194 FPS
Count of elements: 1328
Stream size: 73.8 KiB (0%)
Title: Full
Language: Ukrainian
Default: No
Forced: No

Text #4
ID: 7
Format: UTF-8
Codec ID: S_TEXT/UTF8
Codec ID/Info: UTF-8 Plain Text
Duration: 1 h 53 min
Bit rate: 66 b/s
Frame rate: 0.288 FPS
Count of elements: 1967
Stream size: 55.1 KiB (0%)
Title: SDH
Language: English
Default: No
Forced: No

Menu
00:00:00.000: en: Chapter 1
00:04:22.554: en: Chapter 2
00:11:30.356: en: Chapter 3
00:18:26.981: en: Chapter 4
00:24:34.515: en: Chapter 5
00:29:57.421: en: Chapter 6
00:36:15.215: en: Chapter 7
00:44:59.989: en: Chapter 8
00:52:25.684: en: Chapter 9
00:58:00.936: en: Chapter 10
01:05:09.239: en: Chapter 11
01:11:35.082: en: Chapter 12
01:20:17.104: en: Chapter 13
01:25:24.911: en: Chapter 14
01:33:13.004: en: Chapter 15
01:43:44.802: en: Chapter 16

Другие фильмы
У данной публикации пока нет комментариев.
Будь первым, оставь своё мнение в комментариях!
Информация
Посетители, находящиеся в группе Гости, не могут оставлять комментарии к данной публикации.
Самый популярный релиз недели
Донаты
Мы в соц. сетях / RSS

Лучшие релизы месяца
Лучшие SD недели
Лучшие 720p недели
Лучшие 1080p недели
Лучшие 4K недели
Вы недавно смотрели
Реклама
Последние комментарии
...

fataxdd

16 июля 2024 07:13

...

Rustik99

12 июля 2024 10:11

...

Rograr

6 июля 2024 19:56

...

fenix

2 июля 2024 07:45

...

Fidelrus

28 июня 2024 13:53

Реклама