+3

Падение империи / Гражданская война / Civil War (2024) UHD BDRemux 2160p от селезень | 4K | HDR | Dolby Vision Profile 7 | D | Пифагор

Информация о фильме
Название: Падение империи
Оригинальное название: Civil War
Год выхода: 2024
Жанр: боевик, драма
Режиссер: Алекс Гарленд
В ролях: Кирстен Данст, Вагнер Моура, Кейли Спейни, Стивен Маккинли Хендерсон, Соноя Мидзуно, Ник Офферман, Джефферсон Уайт, Хуани Фелис, Нельсон Ли, Эдмунд Донован

О фильме: Недалёкое будущее, в США бушует гражданская война. Объединённые силы Запада - Калифорнии и Техаса - уже близки к взятию Вашингтона. Двое опытных военных корреспондентов и присоединившиеся к ним ветеран журналистики и начинающая девушка-фотограф отправляются из Нью-Йорка в столицу, чтобы успеть взять интервью у забаррикадировавшегося в Белом доме президента, прежде чем до него доберётся противник.

Страна: США, Великобритания
Студия: A24, DNA Films
Продолжительность: 01:49:00
Перевод: Дублированный | Пифагор

Качество: BDRemux 2160p
Видео: 3840x2160 at 23.976 fps, MPEG-H HEVC HDR Video ~ 79700 kbps avg
Аудио #01: 48 kHz, AC3, 5.1, 448 Kbps | Дублированный | Пифагор | RUS |Падение империи / Гражданская война / Civil War (2024) UHD BDRemux 2160p от селезень | 4K | HDR | Dolby Vision Profile 7 | D | Пифагор
Аудио #02: 48 kHz, E-AC3, 5.1, 448 Kbps | Дублированный | Пифагор | RUS |
Аудио #03: 48 kHz, TrueHD, 7.1, 3562 Kbps | Оригинал | ENG |
Аудио #04: 48 kHz, AC3, 5.1, 384 Kbps | Оригинал | ENG |
Субтитры: Русские (Forced, full), английские

Падение империи / Гражданская война / Civil War (2024) UHD BDRemux 2160p от селезень | 4K | HDR | Dolby Vision Profile 7 | D | Пифагор

Авторизуйтесь для получения доступа к скачиванию

Нет аккаунта? Регистрация открыта и займёт меньше минуты

Вход Регистрация

General
Unique ID : 65789200339384156563304454126978965608 (0x317E8A0222C9A49025196213DB67A068)
Complete name : H:\VideoH\Civil.War.2024.BDREMUX.2160p.HDR.DVP7.seleZen.mkv
Format : Matroska
Format version : Version 4
File size : 64.3 GiB
Duration : 1 h 48 min
Overall bit rate mode : Variable
Overall bit rate : 84.6 Mb/s
Frame rate : 23.976 FPS
Movie name : Civil War 2024 from seleZen
Encoded date : 2024-07-04 14:12:52 UTC
Writing application : mkvmerge v85.0 ('Shame For You') 64-bit
Writing library : libebml v1.4.5 + libmatroska v1.7.1

Video
ID : 1
ID in the original source m : 4113 (0x1011)
Format : HEVC
Format/Info : High Efficiency Video Coding
Format profile : Main [email protected]@High
HDR format : Dolby Vision, Version 1.0, Profile 7.6, dvhe.07.06, BL+EL+RPU, no metadata compression, Blu-ray compatible / SMPTE ST 2086, Version HDR10, HDR10 compatible
Codec ID : V_MPEGH/ISO/HEVC
Duration : 1 h 48 min
Bit rate : 79.7 Mb/s
Width : 3 840 pixels
Height : 2 160 pixels
Display aspect ratio : 16:9
Frame rate mode : Constant
Frame rate : 23.976 (24000/1001) FPS
Color space : YUV
Chroma subsampling : 4:2:0 (Type 2)
Bit depth : 10 bits
Bits/(Pixel*Frame) : 0.401
Stream size : 60.6 GiB (94%)
Language : English
Default : No
Forced : No
Color range : Limited
Color primaries : BT.2020
Transfer characteristics : PQ
Matrix coefficients : BT.2020 non-constant
Mastering display color pri : Display P3
Mastering display luminance : min: 0.0001 cd/m2, max: 1000 cd/m2
Original source medium : Blu-ray

Audio #1
ID : 2
Format : AC-3
Format/Info : Audio Coding 3
Commercial name : Dolby Digital
Codec ID : A_AC3
Duration : 1 h 48 min
Bit rate mode : Constant
Bit rate : 448 kb/s
Channel(s) : 6 channels
Channel layout : L R C LFE Ls Rs
Sampling rate : 48.0 kHz
Frame rate : 31.250 FPS (1536 SPF)
Compression mode : Lossy
Stream size : 348 MiB (1%)
Title : Dub - Пифагор
Language : Russian
Service kind : Complete Main
Default : Yes
Forced : No
Dialog Normalization : -24 dB
compr : 1.02 dB
cmixlev : -3.0 dB
surmixlev : -3 dB
mixlevel : 285 dB
roomtyp : 3
ltrtcmixlev : -3.0 dB
ltrtsurmixlev : -3.0 dB
lorocmixlev : -3.0 dB
lorosurmixlev : -4.5 dB
dialnorm_Average : -24 dB
dialnorm_Minimum : -24 dB
dialnorm_Maximum : -24 dB

Audio #2
ID : 3
Format : E-AC-3
Format/Info : Enhanced AC-3
Commercial name : Dolby Digital Plus
Codec ID : A_EAC3
Duration : 1 h 48 min
Bit rate mode : Constant
Bit rate : 448 kb/s
Channel(s) : 6 channels
Channel layout : L R C LFE Ls Rs
Sampling rate : 48.0 kHz
Frame rate : 31.250 FPS (1536 SPF)
Compression mode : Lossy
Stream size : 348 MiB (1%)
Title : Dub - Пифагор
Language : Russian
Service kind : Complete Main
Default : No
Forced : No
Dialog Normalization : -23 dB
compr : 0.53 dB
dmixmod : Lo/Ro
ltrtcmixlev : -3.0 dB
ltrtsurmixlev : -3.0 dB
lorocmixlev : -3.0 dB
lorosurmixlev : -3.0 dB
dialnorm_Average : -23 dB
dialnorm_Minimum : -23 dB
dialnorm_Maximum : -23 dB

Audio #3
ID : 4
ID in the original source m : 4352 (0x1100)
Format : MLP FBA 16-ch
Format/Info : Meridian Lossless Packing FBA with 16-channel presentation
Commercial name : Dolby TrueHD with Dolby Atmos
Codec ID : A_TRUEHD
Duration : 1 h 48 min
Bit rate mode : Variable
Bit rate : 3 562 kb/s
Maximum bit rate : 7 233 kb/s
Channel(s) : 8 channels
Channel layout : L R C LFE Ls Rs Lb Rb
Sampling rate : 48.0 kHz
Frame rate : 1 200.000 FPS (40 SPF)
Bit depth : 24 bits
Compression mode : Lossless
Stream size : 2.71 GiB (4%)
Title : Original
Language : English
Default : No
Forced : No
Original source medium : Blu-ray
Number of dynamic objects : 11
Bed channel count : 1 channel
Bed channel configuration : LFE
mixlevel : 80 dB
ltrtcmixlev : 3.0 dB
ltrtsurmixlev : 3.0 dB
lorocmixlev : 3.0 dB
lorosurmixlev : 3.0 dB

Audio #4
ID : 5
ID in the original source m : 4352 (0x1100)
Format : AC-3
Format/Info : Audio Coding 3
Commercial name : Dolby Digital
Codec ID : A_AC3
Duration : 1 h 48 min
Bit rate mode : Constant
Bit rate : 384 kb/s
Channel(s) : 6 channels
Channel layout : L R C LFE Ls Rs
Sampling rate : 48.0 kHz
Frame rate : 31.250 FPS (1536 SPF)
Compression mode : Lossy
Stream size : 299 MiB (0%)
Language : English
Service kind : Complete Main
Default : No
Forced : No
Original source medium : Blu-ray
Dialog Normalization : -31 dB
compr : -0.28 dB
cmixlev : -3.0 dB
surmixlev : -3 dB
dmixmod : Lo/Ro
ltrtcmixlev : -3.0 dB
ltrtsurmixlev : -3.0 dB
lorocmixlev : -3.0 dB
lorosurmixlev : -3.0 dB
dialnorm_Average : -31 dB
dialnorm_Minimum : -31 dB
dialnorm_Maximum : -31 dB

Text #1
ID : 6
Format : UTF-8
Codec ID : S_TEXT/UTF8
Codec ID/Info : UTF-8 Plain Text
Duration : 1 h 43 min
Bit rate : 0 b/s
Frame rate : 0.003 FPS
Count of elements : 16
Stream size : 768 Bytes (0%)
Title : Forced
Language : Russian
Default : No
Forced : No

Text #2
ID : 7
Format : UTF-8
Codec ID : S_TEXT/UTF8
Codec ID/Info : UTF-8 Plain Text
Duration : 1 h 42 min
Bit rate : 55 b/s
Frame rate : 0.175 FPS
Count of elements : 1077
Stream size : 41.5 KiB (0%)
Title : Full
Language : Russian
Default : No
Forced : No

Text #3
ID : 8
Format : UTF-8
Codec ID : S_TEXT/UTF8
Codec ID/Info : UTF-8 Plain Text
Duration : 1 h 43 min
Bit rate : 58 b/s
Frame rate : 0.161 FPS
Count of elements : 999
Stream size : 44.1 KiB (0%)
Title : Full - Cool Story Blog]
Language : Russian
Default : No
Forced : No

Text #4
ID : 9
Format : UTF-8
Codec ID : S_TEXT/UTF8
Codec ID/Info : UTF-8 Plain Text
Duration : 1 h 42 min
Bit rate : 61 b/s
Frame rate : 0.177 FPS
Count of elements : 1092
Stream size : 45.9 KiB (0%)
Title : ViruseProject
Language : Russian
Default : No
Forced : No

Text #5
ID : 10
Format : UTF-8
Codec ID : S_TEXT/UTF8
Codec ID/Info : UTF-8 Plain Text
Duration : 1 h 39 min
Bit rate : 34 b/s
Frame rate : 0.165 FPS
Count of elements : 989
Stream size : 25.4 KiB (0%)
Title : Full
Language : English
Default : No
Forced : No

Text #6
ID : 11
Format : UTF-8
Codec ID : S_TEXT/UTF8
Codec ID/Info : UTF-8 Plain Text
Duration : 1 h 40 min
Bit rate : 39 b/s
Frame rate : 0.189 FPS
Count of elements : 1139
Stream size : 28.6 KiB (0%)
Title : SDH
Language : English
Default : No
Forced : No

Menu
00:00:00.000 : en:Chapter 01
00:07:02.213 : en:Chapter 02
00:14:28.409 : en:Chapter 03
00:25:04.127 : en:Chapter 04
00:34:05.877 : en:Chapter 05
00:41:29.069 : en:Chapter 06
00:51:20.410 : en:Chapter 07
00:56:48.863 : en:Chapter 08
01:02:36.836 : en:Chapter 09
01:12:50.991 : en:Chapter 10
01:18:57.023 : en:Chapter 11
01:22:39.245 : en:Chapter 12
01:26:27.348 : en:Chapter 13
01:31:05.168 : en:Chapter 14
01:34:26.702 : en:Chapter 15
01:41:07.144 : en:Chapter 16

Другие фильмы
У данной публикации пока нет комментариев.
Будь первым, оставь своё мнение в комментариях!
Информация
Посетители, находящиеся в группе Гости, не могут оставлять комментарии к данной публикации.
Самый популярный релиз недели
Донаты
Мы в соц. сетях / RSS

Лучшие релизы месяца
Лучшие SD недели
Лучшие 720p недели
Лучшие 1080p недели
Лучшие 4K недели
Вы недавно смотрели
Реклама
Последние комментарии
...

fataxdd

16 июля 2024 07:13

...

Rustik99

12 июля 2024 10:11

...

Rograr

6 июля 2024 19:56

...

fenix

2 июля 2024 07:45

...

Fidelrus

28 июня 2024 13:53

Реклама