+15

Планета обезьян: Новое царство / Kingdom of the Planet of the Apes (2024) WEB-DLRip 720p от DoMiNo & селезень | D, P, A | MovieDalen, Red Head Sound, Jaskier, Есарев

Информация о фильме
Название: Планета обезьян: Новое царство
Оригинальное название: Kingdom of the Planet of the Apes
Год выхода: 2024
Жанр: Фантастика, боевик, приключения
Режиссер: Уэс Болл
В ролях: Оуэн Тиг, Питер Макон, Фрейя Аллан, Кевин Дюран, Трэвис Джеффри, Уильям Х. Мэйси, Дичен Лакмэн, Ика Дэрвилл, Лидия Пекхэм, Нил Сэндилэндс

О фильме:
Несколько поколений после правления Цезаря. Обезьяны являются доминирующим видом, живущим в гармонии, а люди вынуждены оставаться в тени. Пока новый тиранический лидер обезьян строит свою империю, один молодой шимпанзе отправляется в путешествие, которое заставит его усомниться во всём, что он знал о прошлом, и сделать выбор, который определит будущее как обезьян, так и людей.

Страна: США, Австралия
Студия: 20th Century Fox Film Corporation, Fox Studios Australia, Jason T. Reed Productions, Oddball Entertainment
Продолжительность: 02:24:40
Перевод #1: Профессиональный (дублированный) | MovieDalen
Перевод #2: Дублированный неофициальный | Red Head Sound
Перевод #3: Профессиональный (многоголосый закадровый) | Jaskier
Перевод #4: Авторский (одноголосый закадровый) | Д. Есарев
Субтитры: Русские (Forced, Full), английские

Файл
Формат: Matroska
Качество: WEB-DLRip 720p
Исходник: Kingdom.of.the.Planet.of.the.Apes.2024.2160p.iT.WEB-DL.DDP5.1.Atmos.H.265-EDITH
Видео: 1280×536 at 24.000 fps, [email protected], ~2510 kbps
Аудио 1: AC3, 6 ch, ~448 kbps — | Русский | Планета обезьян: Новое царство / Kingdom of the Planet of the Apes (2024) WEB-DLRip 720p от DoMiNo & селезень | D, P, A | MovieDalen, Red Head Sound, Jaskier, Есарев | MovieDalen
Аудио 2: AC3, 2 ch, ~256 kbps — | Русский | | Red Head Sound
Аудио 3: AC3, 6 ch, ~384 kbps — | Русский | | Jaskier
Аудио 4: AC3, 6 ch, ~640 kbps — | Русский | | Д. Есарев
Аудио 5: AC3, 6 ch, ~448 kbps — | Английский |
Формат субтитров: softsub (SRT)
► Без Рекламы!

*** Дебандинг, зерно.

Авторизуйтесь для получения доступа к скачиванию

Нет аккаунта? Регистрация открыта и займёт меньше минуты

Вход Регистрация

General
Unique ID : 269132438042146362217707706216663197974 (0xCA7905AB2C18656926DAEC69058FA916)
Complete name : K:Kingdom.of.the.Planet.of.the.Apes.2024.2xD.P.A.WEB-DLRip.720p.x264.seleZen.mkv
Format : Matroska
Format version : Version 4
File size : 4.74 GiB
Duration : 2 h 24 min
Overall bit rate : 4 689 kb/s
Frame rate : 24.000 FPS
Movie name : Kingdom.of.the.Planet.of.the.Apes.2024.2xD.P.A.WEB-DLRip.720p.x264.seleZen
Encoded date : 2024-07-18 09:48:58 UTC
Writing application : mkvmerge v85.0 ('Shame For You') 64-bit
Writing library : libebml v1.4.5 + libmatroska v1.7.1
Cover : Yes
Attachments : cover.jpg / small_cover.jpg

Video
ID : 1
Format : AVC
Format/Info : Advanced Video Codec
Format profile : [email protected]
Format settings : CABAC / 5 Ref Frames
Format settings, CABAC : Yes
Format settings, Reference : 5 frames
Codec ID : V_MPEG4/ISO/AVC
Duration : 2 h 24 min
Bit rate : 2 510 kb/s
Width : 1 280 pixels
Height : 536 pixels
Display aspect ratio : 2.39:1
Frame rate mode : Constant
Frame rate : 24.000 FPS
Color space : YUV
Chroma subsampling : 4:2:0
Bit depth : 8 bits
Scan type : Progressive
Bits/(Pixel*Frame) : 0.152
Stream size : 2.54 GiB (54%)
Title : -=DoMiNo=-
Writing library : x264 core 164 r3191 -DoMiNo
Encoding settings : cabac=1 / ref=5 / deblock=1:-1:-1 / analyse=0x3:0x133 / me=umh / subme=10 / psy=1 / psy_rd=1.00:0.15 / mixed_ref=1 / me_range=32 / chroma_me=1 / trellis=2 / 8x8dct=1 / cqm=0 / deadzone=21,11 / fast_pskip=0 / chroma_qp_offset=-3 / threads=17 / lookahead_threads=4 / sliced_threads=0 / nr=0 / decimate=1 / interlaced=0 / bluray_compat=0 / constrained_intra=0 / bframes=12 / b_pyramid=2 / b_adapt=2 / b_bias=0 / direct=3 / weightb=1 / open_gop=0 / weightp=2 / keyint=240 / keyint_min=23 / scenecut=40 / intra_refresh=0 / rc_lookahead=60 / rc=crf / mbtree=0 / crf=18.5 / qcomp=0.60 / qpmin=0 / qpmax=69 / qpstep=4 / vbv_maxrate=50000 / vbv_bufsize=62500 / crf_max=0.0 / nal_hrd=none / filler=0 / ip_ratio=1.40 / pb_ratio=1.30 / aq=1:0.90
Language : English
Default : Yes
Forced : No
Color range : Limited
Color primaries : BT.709
Transfer characteristics : BT.709
Matrix coefficients : BT.709

Audio #1
ID : 2
Format : AC-3
Format/Info : Audio Coding 3
Commercial name : Dolby Digital
Codec ID : A_AC3
Duration : 2 h 24 min
Bit rate mode : Constant
Bit rate : 448 kb/s
Channel(s) : 6 channels
Channel layout : L R C LFE Ls Rs
Sampling rate : 48.0 kHz
Frame rate : 31.250 FPS (1536 SPF)
Compression mode : Lossy
Stream size : 464 MiB (10%)
Title : DUB - MovieDalen
Language : Russian
Service kind : Complete Main
Default : Yes
Forced : No
Dialog Normalization : -24 dB
compr : -0.28 dB
cmixlev : -3.0 dB
surmixlev : -3 dB
mixlevel : 285 dB
roomtyp : 3
ltrtcmixlev : -3.0 dB
ltrtsurmixlev : -3.0 dB
lorocmixlev : -3.0 dB
lorosurmixlev : -4.5 dB
dialnorm_Average : -24 dB
dialnorm_Minimum : -24 dB
dialnorm_Maximum : -24 dB

Audio #2
ID : 3
Format : AC-3
Format/Info : Audio Coding 3
Commercial name : Dolby Digital
Codec ID : A_AC3
Duration : 2 h 24 min
Bit rate mode : Constant
Bit rate : 256 kb/s
Channel(s) : 2 channels
Channel layout : L R
Sampling rate : 48.0 kHz
Frame rate : 31.250 FPS (1536 SPF)
Compression mode : Lossy
Stream size : 265 MiB (5%)
Title : DUB - Red Head Sound
Language : Russian
Service kind : Complete Main
Default : No
Forced : No
Dialog Normalization : -31 dB
compr : -0.28 dB
ltrtcmixlev : -3.0 dB
ltrtsurmixlev : -3.0 dB
lorocmixlev : -3.0 dB
lorosurmixlev : -3.0 dB
dialnorm_Average : -31 dB
dialnorm_Minimum : -31 dB
dialnorm_Maximum : -31 dB

Audio #3
ID : 4
Format : AC-3
Format/Info : Audio Coding 3
Commercial name : Dolby Digital
Codec ID : A_AC3
Duration : 2 h 24 min
Bit rate mode : Constant
Bit rate : 384 kb/s
Channel(s) : 6 channels
Channel layout : L R C LFE Ls Rs
Sampling rate : 48.0 kHz
Frame rate : 31.250 FPS (1536 SPF)
Compression mode : Lossy
Stream size : 397 MiB (8%)
Title : MVO - Jaskier
Language : Russian
Service kind : Complete Main
Default : No
Forced : No
Dialog Normalization : -31 dB
cmixlev : -4.5 dB
surmixlev : -6 dB
dialnorm_Average : -31 dB
dialnorm_Minimum : -31 dB
dialnorm_Maximum : -31 dB

Audio #4
ID : 5
Format : AC-3
Format/Info : Audio Coding 3
Commercial name : Dolby Digital
Codec ID : A_AC3
Duration : 2 h 24 min
Bit rate mode : Constant
Bit rate : 640 kb/s
Channel(s) : 6 channels
Channel layout : L R C LFE Ls Rs
Sampling rate : 48.0 kHz
Frame rate : 31.250 FPS (1536 SPF)
Compression mode : Lossy
Stream size : 662 MiB (14%)
Title : AVO - Д.Есарев
Language : Russian
Service kind : Complete Main
Default : No
Forced : No
Dialog Normalization : -31 dB
cmixlev : -4.5 dB
surmixlev : -6 dB
dialnorm_Average : -31 dB
dialnorm_Minimum : -31 dB
dialnorm_Maximum : -31 dB

Audio #5
ID : 6
Format : AC-3
Format/Info : Audio Coding 3
Commercial name : Dolby Digital
Codec ID : A_AC3
Duration : 2 h 24 min
Bit rate mode : Constant
Bit rate : 448 kb/s
Channel(s) : 6 channels
Channel layout : L R C LFE Ls Rs
Sampling rate : 48.0 kHz
Frame rate : 31.250 FPS (1536 SPF)
Compression mode : Lossy
Stream size : 464 MiB (10%)
Language : English
Service kind : Complete Main
Default : No
Forced : No
Dialog Normalization : -31 dB
cmixlev : -4.5 dB
surmixlev : -6 dB
dialnorm_Average : -31 dB
dialnorm_Minimum : -31 dB
dialnorm_Maximum : -31 dB

Text #1
ID : 7
Format : UTF-8
Codec ID : S_TEXT/UTF8
Codec ID/Info : UTF-8 Plain Text
Duration : 2 h 13 min
Bit rate : 1 b/s
Frame rate : 0.003 FPS
Count of elements : 23
Stream size : 1.24 KiB (0%)
Title : Forced
Language : Russian
Default : Yes
Forced : No

Text #2
ID : 8
Format : UTF-8
Codec ID : S_TEXT/UTF8
Codec ID/Info : UTF-8 Plain Text
Duration : 2 h 15 min
Bit rate : 31 b/s
Frame rate : 0.117 FPS
Count of elements : 952
Stream size : 31.0 KiB (0%)
Title : Full
Language : Russian
Default : No
Forced : No

Text #3
ID : 9
Format : UTF-8
Codec ID : S_TEXT/UTF8
Codec ID/Info : UTF-8 Plain Text
Duration : 2 h 9 min
Bit rate : 0 b/s
Frame rate : 0.002 FPS
Count of elements : 12
Stream size : 178 Bytes (0%)
Title : Forced
Language : English
Default : No
Forced : No

Text #4
ID : 10
Format : UTF-8
Codec ID : S_TEXT/UTF8
Codec ID/Info : UTF-8 Plain Text
Duration : 2 h 11 min
Bit rate : 17 b/s
Frame rate : 0.118 FPS
Count of elements : 932
Stream size : 17.0 KiB (0%)
Title : Full
Language : English
Default : No
Forced : No

Text #5
ID : 11
Format : UTF-8
Codec ID : S_TEXT/UTF8
Codec ID/Info : UTF-8 Plain Text
Duration : 2 h 21 min
Bit rate : 25 b/s
Frame rate : 0.162 FPS
Count of elements : 1374
Stream size : 27.0 KiB (0%)
Title : SDH
Language : English
Default : No
Forced : No

Другие фильмы
У данной публикации пока нет комментариев.
Будь первым, оставь своё мнение в комментариях!
Информация
Посетители, находящиеся в группе Гости, не могут оставлять комментарии к данной публикации.
Самый популярный релиз недели
Донаты
Мы в соц. сетях / RSS

Лучшие релизы месяца
Лучшие SD недели
Лучшие 720p недели
Лучшие 1080p недели
Лучшие 4K недели
Вы недавно смотрели
Реклама
Последние комментарии
...

fataxdd

16 июля 2024 07:13

...

Rustik99

12 июля 2024 10:11

...

Rograr

6 июля 2024 19:56

...

fenix

2 июля 2024 07:45

...

Fidelrus

28 июня 2024 13:53

Реклама