+12

Гарфилд / The Garfield Movie (2024) WEB-DL 720p от селезень | D, P | MovieDalen, Red Head Sound, TVShows

Информация о фильме
Название: Гарфилд
Оригинальное название: The Garfield Movie
Год выхода: 2024
Жанр: мультфильм, фэнтези, комедия, приключения, семейный
Режиссер: Марк Диндал
В ролях: Крис Пратт, Сэмюэл Л. Джексон, Ханна Уэддингхэм, Винг Реймз, Николас Холт, Сесили Стронг, Харви Гильен, Бретт Голдстин, Бовэнь Ян, Снуп Догг, Dev Joshi, Люк Синк-Уайт, Линси Мёрелл

О фильме:
После неожиданного воссоединения со своим давно потерянным отцом — уличным котом Виком — Гарфилд вместе с другом-псом Оди вынужден отказаться от своей идеально тепличной жизни и присоединиться к весёлому и опасному приключению.

Страна: США, Великобритания, Гонконг
Продолжительность: 01:43:08
Перевод 1: Дублированный (официальный) | MovieDalen
Перевод 2: Дублированный неофициальный | Red Head Sound
Перевод 3: Профессиональный многоголосый | TVShows
Субтитры: Русские (Forced, Full), английские (Full, SDH)

Файл
Формат: Matroska
Качество: WEB-DL 720p | AMZN
Видео: 1280@1272x688 at 23.976 fps, MPEG-4 AVC, ~3290 kbps
Аудио 1: AC3, 6 ch, ~448 kbps - | Русский | Гарфилд / The Garfield Movie (2024) WEB-DL 720p от селезень | D, P | MovieDalen, Red Head Sound, TVShows | MovieDalen
Аудио 2: AC3, 2 ch, ~192 kbps - | Русский | | Red Head Sound
Аудио 3: AC3, 6 ch, ~640 kbps - | Русский | | TVShows
Аудио 4: E-AC3, 6 ch, ~640 kbps - | Английский |
Формат субтитров: softsub (SRT)

Авторизуйтесь для получения доступа к скачиванию

Нет аккаунта? Регистрация открыта и займёт меньше минуты

Вход Регистрация

General
Unique ID : 258636203324164984403603235447199552826 (0xC2938557A2B8345045FD65DB2FACD53A)
Complete name : G:The.Garfield.Movie.2024.DUB.MVO.AMZN.WEB-DL.720p.x264.seleZen.mkv
Format : Matroska
Format version : Version 4
File size : 3.79 GiB
Duration : 1 h 43 min
Overall bit rate : 5 262 kb/s
Frame rate : 23.976 FPS
Movie name : The.Garfield.Movie.2024.DUB.MVO.AMZN.WEB-DL.720p.x264.seleZen
Encoded date : 2024-07-15 13:25:31 UTC
Writing application : mkvmerge v85.0 ('Shame For You') 64-bit
Writing library : libebml v1.4.5 + libmatroska v1.7.1
Cover : Yes
Attachments : cover.jpg / small_cover.jpg

Video
ID : 1
Format : AVC
Format/Info : Advanced Video Codec
Format profile : [email protected]
Format settings : CABAC / 4 Ref Frames
Format settings, CABAC : Yes
Format settings, Reference : 4 frames
Codec ID : V_MPEG4/ISO/AVC
Duration : 1 h 43 min
Bit rate mode : Constant
Bit rate : 3 366 kb/s
Nominal bit rate : 4 000 kb/s
Width : 1 280 pixels
Height : 688 pixels
Display aspect ratio : 1.85:1
Frame rate mode : Constant
Frame rate : 23.976 (24000/1001) FPS
Color space : YUV
Chroma subsampling : 4:2:0
Bit depth : 8 bits
Scan type : Progressive
Bits/(Pixel*Frame) : 0.159
Stream size : 2.43 GiB (64%)
Title : -=DoMiNo=-
Language : English
Default : Yes
Forced : No
Color range : Limited
Color primaries : BT.709
Transfer characteristics : BT.709
Matrix coefficients : BT.709

Audio #1
ID : 2
Format : AC-3
Format/Info : Audio Coding 3
Commercial name : Dolby Digital
Codec ID : A_AC3
Duration : 1 h 40 min
Bit rate mode : Constant
Bit rate : 448 kb/s
Channel(s) : 6 channels
Channel layout : L R C LFE Ls Rs
Sampling rate : 48.0 kHz
Frame rate : 31.250 FPS (1536 SPF)
Compression mode : Lossy
Stream size : 324 MiB (8%)
Title : Dub - MovieDalen
Language : Russian
Service kind : Complete Main
Default : Yes
Forced : No
Dialog Normalization : -24 dB
compr : -0.28 dB
cmixlev : -3.0 dB
surmixlev : -3 dB
mixlevel : 285 dB
roomtyp : 3
ltrtcmixlev : -3.0 dB
ltrtsurmixlev : -3.0 dB
lorocmixlev : -3.0 dB
lorosurmixlev : -4.5 dB
dialnorm_Average : -24 dB
dialnorm_Minimum : -24 dB
dialnorm_Maximum : -24 dB

Audio #2
ID : 3
Format : AC-3
Format/Info : Audio Coding 3
Commercial name : Dolby Digital
Codec ID : A_AC3
Duration : 1 h 40 min
Bit rate mode : Constant
Bit rate : 192 kb/s
Channel(s) : 2 channels
Channel layout : L R
Sampling rate : 48.0 kHz
Frame rate : 31.250 FPS (1536 SPF)
Compression mode : Lossy
Stream size : 139 MiB (4%)
Title : DUB [Red Head Sound]
Language : Russian
Service kind : Complete Main
Default : No
Forced : No
Dialog Normalization : -31 dB
dialnorm_Average : -31 dB
dialnorm_Minimum : -31 dB
dialnorm_Maximum : -31 dB

Audio #3
ID : 4
Format : AC-3
Format/Info : Audio Coding 3
Commercial name : Dolby Digital
Codec ID : A_AC3
Duration : 1 h 40 min
Bit rate mode : Constant
Bit rate : 640 kb/s
Channel(s) : 6 channels
Channel layout : L R C LFE Ls Rs
Sampling rate : 48.0 kHz
Frame rate : 31.250 FPS (1536 SPF)
Compression mode : Lossy
Stream size : 462 MiB (12%)
Title : MVO [TVShows]
Language : Russian
Service kind : Complete Main
Default : No
Forced : No
Dialog Normalization : -31 dB
cmixlev : -4.5 dB
surmixlev : -6 dB
dialnorm_Average : -31 dB
dialnorm_Minimum : -31 dB
dialnorm_Maximum : -31 dB

Audio #4
ID : 5
Format : E-AC-3
Format/Info : Enhanced AC-3
Commercial name : Dolby Digital Plus
Codec ID : A_EAC3
Duration : 1 h 43 min
Bit rate mode : Constant
Bit rate : 640 kb/s
Channel(s) : 6 channels
Channel layout : L R C LFE Ls Rs
Sampling rate : 48.0 kHz
Frame rate : 31.250 FPS (1536 SPF)
Compression mode : Lossy
Stream size : 472 MiB (12%)
Title : English
Language : English (US)
Service kind : Complete Main
Default : No
Forced : No
Dialog Normalization : -31 dB
compr : -0.28 dB
dialnorm_Average : -31 dB
dialnorm_Minimum : -31 dB
dialnorm_Maximum : -31 dB

Text #1
ID : 6
Format : UTF-8
Codec ID : S_TEXT/UTF8
Codec ID/Info : UTF-8 Plain Text
Duration : 1 h 36 min
Bit rate : 3 b/s
Frame rate : 0.011 FPS
Count of elements : 65
Stream size : 2.52 KiB (0%)
Title : Forced
Language : Russian
Default : Yes
Forced : No

Text #2
ID : 7
Format : UTF-8
Codec ID : S_TEXT/UTF8
Codec ID/Info : UTF-8 Plain Text
Duration : 1 h 39 min
Bit rate : 110 b/s
Frame rate : 0.247 FPS
Count of elements : 1470
Stream size : 80.1 KiB (0%)
Title : iTunes
Language : Russian
Default : No
Forced : No

Text #3
ID : 8
Format : UTF-8
Codec ID : S_TEXT/UTF8
Codec ID/Info : UTF-8 Plain Text
Duration : 1 h 38 min
Bit rate : 62 b/s
Frame rate : 0.232 FPS
Count of elements : 1364
Stream size : 45.3 KiB (0%)
Title : English
Language : English
Default : No
Forced : No

Text #4
ID : 9
Format : UTF-8
Codec ID : S_TEXT/UTF8
Codec ID/Info : UTF-8 Plain Text
Duration : 1 h 39 min
Bit rate : 75 b/s
Frame rate : 0.309 FPS
Count of elements : 1841
Stream size : 54.6 KiB (0%)
Title : English (SDH)
Language : English
Default : No
Forced : No

Menu
00:00:00.000 : en:Chapter 1
00:04:59.424 : en:Chapter 2
00:12:21.157 : en:Chapter 3
00:17:37.223 : en:Chapter 4
00:23:54.517 : en:Chapter 5
00:27:57.093 : en:Chapter 6
00:36:30.357 : en:Chapter 7
00:42:51.446 : en:Chapter 8
00:49:45.485 : en:Chapter 9
00:53:52.857 : en:Chapter 10
00:59:21.478 : en:Chapter 11
01:06:42.669 : en:Chapter 12
01:11:20.697 : en:Chapter 13
01:18:50.730 : en:Chapter 14
01:25:20.412 : en:Chapter 15
01:31:39.744 : en:Chapter 16

Другие фильмы
У данной публикации пока нет комментариев.
Будь первым, оставь своё мнение в комментариях!
Информация
Посетители, находящиеся в группе Гости, не могут оставлять комментарии к данной публикации.
Самый популярный релиз недели
Донаты
Мы в соц. сетях / RSS

Лучшие релизы месяца
Лучшие SD недели
Лучшие 720p недели
Лучшие 1080p недели
Лучшие 4K недели
Вы недавно смотрели
Реклама
Последние комментарии
...

fataxdd

16 июля 2024 07:13

...

Rustik99

12 июля 2024 10:11

...

Rograr

6 июля 2024 19:56

...

fenix

2 июля 2024 07:45

...

Fidelrus

28 июня 2024 13:53

Реклама