+5

Гарфилд / The Garfield Movie (2024) WEB-DLRip 1080p от селезень | D

Информация о фильме
Название: Гарфилд
Оригинальное название: The Garfield Movie
Год выхода: 2024
Жанр: мультфильм, фэнтези, комедия, приключения, семейный
Режиссер: Марк Диндал
В ролях: Крис Пратт, Сэмюэл Л. Джексон, Ханна Уэддингхэм, Винг Реймз, Николас Холт, Сесили Стронг, Харви Гильен, Бретт Голдстин, Бовэнь Ян, Снуп Догг, Dev Joshi, Люк Синк-Уайт, Линси Мёрелл

О фильме:
После неожиданного воссоединения со своим давно потерянным отцом — уличным котом Виком — Гарфилд вместе с другом-псом Оди вынужден отказаться от своей идеально тепличной жизни и присоединиться к весёлому и опасному приключению.

Страна: США, Великобритания, Гонконг
Продолжительность: 01:40:58
Перевод: Дублированный (официальный) | MovieDalen
Субтитры: Русские (Forced, Full), английские (Full, SDH)

Файл
Формат: Matroska
Качество: WEB-DLRip 1080p | Исх.The.Garfield.Movie.2024.2160p.WEB-DL.DDP5.1.H.265-XEBEC.mkv
Видео: 1920x1036 at 23.976 fps, MPEG-4 AVC, ~8000 kbps
Аудио 1: AC3, 6 ch, ~448 kbps - | Русский | Гарфилд / The Garfield Movie (2024) WEB-DLRip 1080p от селезень | D
Аудио 2: AC3, 6 ch, ~448 kbps - | Английский |
Формат субтитров: softsub (SRT)

Авторизуйтесь для получения доступа к скачиванию

Нет аккаунта? Регистрация открыта и займёт меньше минуты

Вход Регистрация

General
Unique ID: 44701662406031091494974193544590350625 (0×21A13A1DED97727A33616A231CA15921)
Complete name: L: The.Garfield.Movie.2024.WEB-DLRip.1080p.x264.seleZen.mkv
Format: Matroska
Format version: Version 4
File size: 6.28 GiB
Duration: 1 h 43 min
Overall bit rate: 8 718 kb/s
Frame rate: 23.976 FPS
Movie name: The.Garfield.Movie.2024.WEB-DLRip.1080p.x264.seleZen
Encoded date: 09.07.2024 19:06:45 UTC
Writing application: mkvmerge v85.0 ('Shame For You') 64-bit
Writing library: libebml v1.4.5 + libmatroska v1.7.1
Cover: Yes
Attachments: cover.jpg / small_cover.jpg

Video
ID: 1
Format: AVC
Format/Info: Advanced Video Codec
Format profile: [email protected]
Format settings: CABAC / 4 Ref Frames
Format settings, CABAC: Yes
Format settings, Reference: 4 frames
Codec ID: V_MPEG4/ISO/AVC
Duration: 1 h 40 min
Bit rate: 8 000 kb/s
Width: 1 920 pixels
Height: 1 036 pixels
Display aspect ratio: 1.85:1
Frame rate mode: Constant
Frame rate: 23.976 (24000/1001) FPS
Color space: YUV
Chroma subsampling: 4:2:0
Bit depth: 8 bits
Scan type: Progressive
Bits/(Pixel*Frame): 0.168
Stream size: 5.64 GiB (90%)
Title: seleZen
Writing library: x264 core 164 r3164 seleZen
Encoding settings: cabac=1 / ref=4 / deblock=1:-2:-2 / analyse=0×3:0×133 / me=umh / subme=10 / psy=1 / psy_rd=1.01:0.01 / mixed_ref=1 / me_range=32 / chroma_me=1 / trellis=2 / 8×8dct=1 / cqm=0 / deadzone=21,11 / fast_pskip=0 / chroma_qp_offset=-3 / threads=32 / lookahead_threads=5 / sliced_threads=0 / nr=0 / decimate=0 / interlaced=0 / bluray_compat=0 / constrained_intra=0 / bframes=8 / b_pyramid=2 / b_adapt=2 / b_bias=0 / direct=3 / weightb=1 / open_gop=0 / weightp=2 / keyint=240 / keyint_min=23 / scenecut=40 / intra_refresh=0 / rc_lookahead=60 / rc=2pass / mbtree=0 / bitrate=8000 / ratetol=1.0 / qcomp=0.60 / qpmin=0 / qpmax=51 / qpstep=4 / cplxblur=20.0 / qblur=0.5 / vbv_maxrate=50000 / vbv_bufsize=62500 / nal_hrd=none / filler=0 / ip_ratio=1.40 / pb_ratio=1.30 / aq=3:0.80
Language: English
Default: Yes
Forced: No

Audio #1
ID: 2
Format: AC-3
Format/Info: Audio Coding 3
Commercial name: Dolby Digital
Codec ID: A_AC3
Duration: 1 h 40 min
Bit rate mode: Constant
Bit rate: 448 kb/s
Channel (s): 6 channels
Channel layout: L R C LFE Ls Rs
Sampling rate: 48.0 kHz
Frame rate: 31.250 FPS (1536 SPF)
Compression mode: Lossy
Stream size: 324 MiB (5%)
Title: DUB — MovieDalen
Language: Russian
Service kind: Complete Main
Default: Yes
Forced: No
Dialog Normalization: -24 dB
compr: -0.28 dB
cmixlev: -3.0 dB
surmixlev: -3 dB
mixlevel: 285 dB
roomtyp: 3
ltrtcmixlev: -3.0 dB
ltrtsurmixlev: -3.0 dB
lorocmixlev: -3.0 dB
lorosurmixlev: -4.5 dB
dialnorm_Average: -24 dB
dialnorm_Minimum: -24 dB
dialnorm_Maximum: -24 dB

Audio #2
ID: 3
Format: AC-3
Format/Info: Audio Coding 3
Commercial name: Dolby Digital
Codec ID: A_AC3
Duration: 1 h 43 min
Bit rate mode: Constant
Bit rate: 448 kb/s
Channel (s): 6 channels
Channel layout: L R C LFE Ls Rs
Sampling rate: 48.0 kHz
Frame rate: 31.250 FPS (1536 SPF)
Compression mode: Lossy
Stream size: 331 MiB (5%)
Title: Original
Language: English
Service kind: Complete Main
Default: No
Forced: No
Dialog Normalization: -31 dB
cmixlev: -4.5 dB
surmixlev: -6 dB
dialnorm_Average: -31 dB
dialnorm_Minimum: -31 dB
dialnorm_Maximum: -31 dB

Text #1
ID: 4
Format: UTF-8
Codec ID: S_TEXT/UTF8
Codec ID/Info: UTF-8 Plain Text
Duration: 1 h 36 min
Bit rate: 3 b/s
Frame rate: 0.011 FPS
Count of elements: 65
Stream size: 2.52 KiB (0%)
Title: Forced
Language: Russian
Default: No
Forced: No

Text #2
ID: 5
Format: UTF-8
Codec ID: S_TEXT/UTF8
Codec ID/Info: UTF-8 Plain Text
Duration: 1 h 39 min
Bit rate: 110 b/s
Frame rate: 0.247 FPS
Count of elements: 1470
Stream size: 80.1 KiB (0%)
Title: iTunes
Language: Russian
Default: No
Forced: No

Text #3
ID: 6
Format: UTF-8
Codec ID: S_TEXT/UTF8
Codec ID/Info: UTF-8 Plain Text
Duration: 1 h 38 min
Bit rate: 62 b/s
Frame rate: 0.232 FPS
Count of elements: 1364
Stream size: 45.3 KiB (0%)
Title: English
Language: English
Default: No
Forced: No

Text #4
ID: 7
Format: UTF-8
Codec ID: S_TEXT/UTF8
Codec ID/Info: UTF-8 Plain Text
Duration: 1 h 39 min
Bit rate: 75 b/s
Frame rate: 0.309 FPS
Count of elements: 1841
Stream size: 54.6 KiB (0%)
Title: English (SDH)
Language: English
Default: No
Forced: No

Menu
00:00:00.000: en: Chapter 1
00:04:59.424: en: Chapter 2
00:12:21.157: en: Chapter 3
00:17:37.223: en: Chapter 4
00:23:54.517: en: Chapter 5
00:27:57.093: en: Chapter 6
00:36:30.357: en: Chapter 7
00:42:51.446: en: Chapter 8
00:49:45.485: en: Chapter 9
00:53:52.857: en: Chapter 10
00:59:21.478: en: Chapter 11
01:06:42.669: en: Chapter 12
01:11:20.697: en: Chapter 13
01:18:50.730: en: Chapter 14
01:25:20.412: en: Chapter 15
01:31:39.744: en: Chapter 16

Другие фильмы
У данной публикации пока нет комментариев.
Будь первым, оставь своё мнение в комментариях!
Информация
Посетители, находящиеся в группе Гости, не могут оставлять комментарии к данной публикации.
Самый популярный релиз недели
Донаты
Мы в соц. сетях / RSS

Лучшие релизы месяца
Лучшие SD недели
Лучшие 720p недели
Лучшие 1080p недели
Лучшие 4K недели
Вы недавно смотрели
Реклама
Последние комментарии
...

fataxdd

16 июля 2024 07:13

...

Rustik99

12 июля 2024 10:11

...

Rograr

6 июля 2024 19:56

...

fenix

2 июля 2024 07:45

...

Fidelrus

28 июня 2024 13:53

Реклама