+3

Пацан против всех / Boy Kills World (2023) WEB-DL 1080p от селезень | D

Информация о фильме
Название: Пацан против всех
Оригинальное название: Boy Kills World
Год выхода: 2023
Жанр: боевик, комедия
Режиссер: Мориц Мор
В ролях: Билл Скарсгард, Джессика Рот, Мишель Докери, Бретт Гельман, Яян Рухьян, Куинн Коуплэнд, Эндрю Кодзи, Айзейя Мустафа, Фамке Янссен, Шарлто Копли

О фильме: В некоем городе власть захватила коррумпированная династия Ван Дер Кой и каждый год устраивает показательную казнь врагов режима. Именно так мальчик лишается семьи, слуха и возможности говорить и оказывается в джунглях, где отшельник по имени Шаман начинает обучать его боевым искусствам. Теперь парень живёт ради одной цели - убить Хильду Ван Дер Кой. Годы спустя, уже взрослым натренированным бойцом, он становится свидетелем очередной кровавой расправы над мирными жителями, и, не сдержавшись, бросается в бой.

Страна: Германия, ЮАР, США
Студия: Hammerstone Studios, Nthibah Pictures, Raimi Productions, Ventaro Film
Продолжительность: 01:46:37
Перевод: Дублированный | Мосфильм-Мастер

Качество: WEB-DL 1080p
Видео: MPEG-4 AVC, 1920x1080, 6144 Kbit/s, 24.000 fps
Аудио: 48 kHz, AC3, 5.1, 640 Kbps | Дублированный | Мосфильм-Мастер | RUS |Пацан против всех / Boy Kills World (2023) WEB-DL 1080p от селезень | D
Субтитры: Отсутствуют

Пацан против всех / Boy Kills World (2023) WEB-DL 1080p от селезень | D

Авторизуйтесь для получения доступа к скачиванию

Нет аккаунта? Регистрация открыта и займёт меньше минуты

Вход Регистрация

General
Unique ID : 321740972244190190801247889207293790803 (0xF20D0EA9C7A3EAD1B62692B3490A4A53)
Complete name : H:\VideoH\Boy.Kills.World.2023.WEB-DL.seleZen.mkv
Format : Matroska
Format version : Version 4
File size : 5.02 GiB
Duration : 1 h 46 min
Overall bit rate mode : Constant
Overall bit rate : 6 743 kb/s
Frame rate : 24.000 FPS
Movie name : Boy Kills World 2023 from seleZen
Encoded date : 2024-07-09 22:25:02 UTC
Writing application : mkvmerge v85.0 ('Shame For You') 64-bit
Writing library : libebml v1.4.5 + libmatroska v1.7.1

Video
ID : 1
Format : AVC
Format/Info : Advanced Video Codec
Format profile : Constrained Baseline@L4
Format settings : 2 Ref Frames
Format settings, CABAC : No
Format settings, Reference : 2 frames
Format settings, Slice coun : 7 slices per frame
Codec ID : V_MPEG4/ISO/AVC
Duration : 1 h 46 min
Bit rate mode : Constant
Bit rate : 6 144 kb/s
Width : 1 920 pixels
Height : 1 080 pixels
Display aspect ratio : 16:9
Frame rate mode : Constant
Frame rate : 24.000 FPS
Color space : YUV
Chroma subsampling : 4:2:0
Bit depth : 8 bits
Scan type : Progressive
Bits/(Pixel*Frame) : 0.123
Stream size : 4.54 GiB (90%)
Language : English
Default : Yes
Forced : No

Audio
ID : 2
Format : AC-3
Format/Info : Audio Coding 3
Commercial name : Dolby Digital
Codec ID : A_AC3
Duration : 1 h 46 min
Bit rate mode : Constant
Bit rate : 640 kb/s
Channel(s) : 6 channels
Channel layout : L R C LFE Ls Rs
Sampling rate : 48.0 kHz
Frame rate : 31.250 FPS (1536 SPF)
Compression mode : Lossy
Stream size : 488 MiB (9%)
Title : Dub
Language : Russian
Service kind : Complete Main
Default : Yes
Forced : No
Dialog Normalization : -24 dB
compr : 0.53 dB
cmixlev : -3.0 dB
surmixlev : -3 dB
mixlevel : 285 dB
roomtyp : 3
ltrtcmixlev : -3.0 dB
ltrtsurmixlev : -3.0 dB
lorocmixlev : -3.0 dB
lorosurmixlev : -4.5 dB
dialnorm_Average : -24 dB
dialnorm_Minimum : -24 dB
dialnorm_Maximum : -24 dB

Другие фильмы
У данной публикации пока нет комментариев.
Будь первым, оставь своё мнение в комментариях!
Информация
Посетители, находящиеся в группе Гости, не могут оставлять комментарии к данной публикации.
Самый популярный релиз недели
Донаты
Мы в соц. сетях / RSS

Лучшие релизы месяца
Лучшие SD недели
Лучшие 720p недели
Лучшие 1080p недели
Лучшие 4K недели
Вы недавно смотрели
Реклама
Последние комментарии
...

fataxdd

16 июля 2024 07:13

...

Rustik99

12 июля 2024 10:11

...

Rograr

6 июля 2024 19:56

...

fenix

2 июля 2024 07:45

...

Fidelrus

28 июня 2024 13:53

Реклама