+5

Таро: Карта смерти / Tarot (2024) BDRip от DoMiNo & селезень | D, P

Информация о фильме
Название: Таро: Карта смерти
Оригинальное название: Tarot
Год выпуска: 2024
Жанр: Ужасы
Режиссер: Спенсер Коэн / Spenser Cohen, Анна Халберг / Anna Halberg
В ролях: Харриет Слейтер, Эдейн Брэдли, Джейкоб Баталон, Авантика, Умберли Гонсалес, Вольфганг Новограц, Ларсен Томпсон, Олуэн Фуэре, Сунчика Миланович, Алан Уэллс, Анна Халберг, Кевин Корнуолл, Джосс Картер, Джеймс Суонтон

О фильме:
Когда компания друзей безрассудно нарушает священное правило гадания на Таро — никогда не использовать чужую колоду — они неосознанно высвобождают зло, запертое в проклятых картах. Один за другим они оказываются лицом к лицу с судьбой и вступают в гонку со смертью, чтобы избежать будущего, предсказанного в их гаданиях.

Выпущено: США, Сербия, Alloy Entertainment, Capstone Pictures, Ground Control, Screen Gems
Продолжительность: 01:31:58
Перевод 1: Дублированный | MovieDalen
Перевод 2: Профессиональный (многоголосый, закадровый) | HDRezka Studio
Субтитры: Русские (Forced - хардсаб)

Файл
Формат: AVI
Качество: BDRip
Видео: 720x304 at 23.976 fps, XviD 69, ~1687 kbps
Аудио 1: AC3, 6 ch, ~384 kbps - | Русский | Таро: Карта смерти / Tarot (2024) BDRip от DoMiNo & селезень | D, P | MovieDalen
Аудио 2: AC3, 2 ch, ~192 kbps - | Русский | | HDRezka
Формат субтитров: хардсаб

Авторизуйтесь для получения доступа к скачиванию

Нет аккаунта? Регистрация открыта и займёт меньше минуты

Вход Регистрация

General
Complete name : U:Tarot.2024.BDRip.seleZen.avi
Format : AVI
Format/Info : Audio Video Interleave
Format settings : BitmapInfoHeader / WaveFormatEx
File size : 1.46 GiB
Duration : 1 h 31 min
Overall bit rate : 2 277 kb/s
Frame rate : 23.976 FPS
Movie name : Tarot.2024.BDRip.seleZen
Writing application : VirtualDubModRus 1.5.10.2 (build 2542/release)
Writing library : VirtualDubMod build 2542/release
Copyright : -=DoMiNo=-

Video
ID : 0
Format : MPEG-4 Visual
Format profile : Advanced Simple@L5
Format settings : BVOP1 / Custom Matrix
Format settings, BVOP : 1
Format settings, QPel : No
Format settings, GMC : No warppoints
Format settings, Matrix : Custom
Codec ID : XVID
Codec ID/Hint : XviD
Duration : 1 h 31 min
Bit rate : 1 687 kb/s
Width : 720 pixels
Height : 304 pixels
Display aspect ratio : 2.39:1
Frame rate : 23.976 (24000/1001) FPS
Color space : YUV
Chroma subsampling : 4:2:0
Bit depth : 8 bits
Scan type : Progressive
Compression mode : Lossy
Bits/(Pixel*Frame) : 0.321
Stream size : 1.08 GiB (74%)
Writing library : XviD 69

Audio #1
ID : 1
Format : AC-3
Format/Info : Audio Coding 3
Commercial name : Dolby Digital
Codec ID : 2000
Duration : 1 h 31 min
Bit rate mode : Constant
Bit rate : 384 kb/s
Channel(s) : 6 channels
Channel layout : L R C LFE Ls Rs
Sampling rate : 48.0 kHz
Frame rate : 31.250 FPS (1536 SPF)
Compression mode : Lossy
Stream size : 253 MiB (17%)
Alignment : Split across interleaves
Interleave, duration : 42 ms (1.00 video frame)
Interleave, preload duratio : 500 ms
Service kind : Complete Main
Dialog Normalization : -31 dB
cmixlev : -4.5 dB
surmixlev : -6 dB
dialnorm_Average : -31 dB
dialnorm_Minimum : -31 dB
dialnorm_Maximum : -31 dB

Audio #2
ID : 2
Format : AC-3
Format/Info : Audio Coding 3
Commercial name : Dolby Digital
Codec ID : 2000
Duration : 1 h 31 min
Bit rate mode : Constant
Bit rate : 192 kb/s
Channel(s) : 2 channels
Channel layout : L R
Sampling rate : 48.0 kHz
Frame rate : 31.250 FPS (1536 SPF)
Compression mode : Lossy
Stream size : 126 MiB (8%)
Alignment : Split across interleaves
Interleave, duration : 42 ms (1.00 video frame)
Interleave, preload duratio : 500 ms
Service kind : Complete Main
Dialog Normalization : -31 dB
dialnorm_Average : -31 dB
dialnorm_Minimum : -31 dB
dialnorm_Maximum : -31 dB

Другие фильмы
У данной публикации пока нет комментариев.
Будь первым, оставь своё мнение в комментариях!
Информация
Посетители, находящиеся в группе Гости, не могут оставлять комментарии к данной публикации.
Самый популярный релиз недели
Донаты
Мы в соц. сетях / RSS

Лучшие релизы месяца
Лучшие SD недели
Лучшие 720p недели
Лучшие 1080p недели
Лучшие 4K недели
Вы недавно смотрели
Реклама
Последние комментарии
...

fataxdd

16 июля 2024 07:13

...

Rustik99

12 июля 2024 10:11

...

Rograr

6 июля 2024 19:56

...

fenix

2 июля 2024 07:45

...

Fidelrus

28 июня 2024 13:53

Реклама