+6

Я не киллер / Hit Man (2023) BDRemux 1080p от селезень | D

Информация о фильме
Название: Я не киллер
Оригинальное название: Hit Man
Год выхода: 2023
Жанр: боевик, мелодрама, комедия, криминал
Режиссер: Ричард Линклейтер
В ролях: Глен Пауэлл, Адриа Архона, Ретта, Остин Амелио, Молли Бернард, Майк Маркофф, Бет Бартли, Рокси Ривера, Джулия Холт, Ивэн Холцман

О фильме:
Гэри Джонсон выдает себя за наемного убийцу, чтобы поймать настоящих преступников. Все шло по плану, пока в этой истории не появилась женщина.

Страна: США
Студия: AGC Studios, Aggregate Films, BarnStorm Productions, Cinetic Media, Detour Filmproduction, Detour Pictures, Monarch Media, Netflix, ShivHans Pictures
Продолжительность: 01:55:15
Перевод: Дублированный | Мосфильм-Мастер
Субтитры: Русские (Forced, 2x Full), Английские

Файл
Формат: Matroska
Качество: BDRemux 1080p
Видео: 1920x1080 at 23.976 fps, [email protected], ~30000 kbps
Аудио 1: AC3, 6 ch, ~384 kbps - | Русский | Я не киллер / Hit Man (2023) BDRemux 1080p от селезень | D
Аудио 2: E-AC3, 6 ch, ~384 kbps - | Русский |
Аудио 3: Dolby TrueHD, 6 ch, ~1069 kbps - | Английский |
Аудио 4: AC3, 6 ch, ~640 kbps - | Английский |
Формат субтитров: softsub (SRT)

Авторизуйтесь для получения доступа к скачиванию

Нет аккаунта? Регистрация открыта и займёт меньше минуты

Вход Регистрация

General
Unique ID: 123686168239692915101709149381568659391 (0×5D0D16EA410E05B19A34C520816A7FBF)
Complete name: E: WorkEHit.Man.2023.BDREMUX.1080p.seleZen.mkv
Format: Matroska
Format version: Version 4
File size: 26.2 GiB
Duration: 1 h 55 min
Overall bit rate mode: Variable
Overall bit rate: 32.6 Mb/s
Frame rate: 23.976 FPS
Movie name: Hit Man (2023) from seleZen
Encoded date: 10.07.2024 18:53:10 UTC
Writing application: mkvmerge v85.0 ('Shame For You') 64-bit
Writing library: libebml v1.4.5 + libmatroska v1.7.1

Video
ID: 1
Format: AVC
Format/Info: Advanced Video Codec
Format profile: [email protected]
Format settings: CABAC / 4 Ref Frames
Format settings, CABAC: Yes
Format settings, Reference: 4 frames
Format settings, Slice coun: 4 slices per frame
Codec ID: V_MPEG4/ISO/AVC
Duration: 1 h 55 min
Bit rate mode: Variable
Bit rate: 30.0 Mb/s
Maximum bit rate: 35.0 Mb/s
Width: 1 920 pixels
Height: 1 080 pixels
Display aspect ratio: 16:9
Frame rate mode: Constant
Frame rate: 23.976 (24000/1001) FPS
Standard: NTSC
Color space: YUV
Chroma subsampling: 4:2:0
Bit depth: 8 bits
Scan type: Progressive
Bits/(Pixel*Frame): 0.604
Stream size: 24.2 GiB (92%)
Language: English
Default: Yes
Forced: No
Color range: Limited
Color primaries: BT.709
Transfer characteristics: BT.709
Matrix coefficients: BT.709

Audio #1
ID: 2
Format: AC-3
Format/Info: Audio Coding 3
Commercial name: Dolby Digital
Codec ID: A_AC3
Duration: 1 h 55 min
Bit rate mode: Constant
Bit rate: 384 kb/s
Channel (s): 6 channels
Channel layout: L R C LFE Ls Rs
Sampling rate: 48.0 kHz
Frame rate: 31.250 FPS (1536 SPF)
Compression mode: Lossy
Stream size: 317 MiB (1%)
Title: Dub
Language: Russian
Service kind: Complete Main
Default: Yes
Forced: No
Dialog Normalization: -31 dB
cmixlev: -3.0 dB
surmixlev: -6 dB
dialnorm_Average: -31 dB
dialnorm_Minimum: -31 dB
dialnorm_Maximum: -31 dB

Audio #2
ID: 3
Format: E-AC-3
Format/Info: Enhanced AC-3
Commercial name: Dolby Digital Plus
Codec ID: A_EAC3
Duration: 1 h 55 min
Bit rate mode: Constant
Bit rate: 384 kb/s
Channel (s): 6 channels
Channel layout: L R C LFE Ls Rs
Sampling rate: 48.0 kHz
Frame rate: 31.250 FPS (1536 SPF)
Compression mode: Lossy
Stream size: 317 MiB (1%)
Title: Dub
Language: Russian
Service kind: Complete Main
Default: No
Forced: No
Dialog Normalization: -31 dB
dialnorm_Average: -31 dB
dialnorm_Minimum: -31 dB
dialnorm_Maximum: -31 dB

Audio #3
ID: 4
Format: MLP FBA
Format/Info: Meridian Lossless Packing FBA
Commercial name: Dolby TrueHD
Codec ID: A_TRUEHD
Duration: 1 h 55 min
Bit rate mode: Variable
Bit rate: 1 069 kb/s
Maximum bit rate: 2 082 kb/s
Channel (s): 6 channels
Channel layout: L R C LFE Ls Rs
Sampling rate: 48.0 kHz
Frame rate: 1 200.000 FPS (40 SPF)
Compression mode: Lossless
Stream size: 882 MiB (3%)
Title: Original
Language: English
Default: No
Forced: No

Audio #4
ID: 5
Format: AC-3
Format/Info: Audio Coding 3
Commercial name: Dolby Digital
Codec ID: A_AC3
Duration: 1 h 55 min
Bit rate mode: Constant
Bit rate: 640 kb/s
Channel (s): 6 channels
Channel layout: L R C LFE Ls Rs
Sampling rate: 48.0 kHz
Frame rate: 31.250 FPS (1536 SPF)
Compression mode: Lossy
Stream size: 528 MiB (2%)
Language: English
Service kind: Complete Main
Default: No
Forced: No
Dialog Normalization: -31 dB
compr: -0.28 dB
cmixlev: -3.0 dB
surmixlev: -3 dB
dmixmod: Lt/Rt
ltrtcmixlev: -3.0 dB
ltrtsurmixlev: -3.0 dB
lorocmixlev: -3.0 dB
lorosurmixlev: -3.0 dB
dialnorm_Average: -31 dB
dialnorm_Minimum: -31 dB
dialnorm_Maximum: -31 dB

Text #1
ID: 6
Format: UTF-8
Codec ID: S_TEXT/UTF8
Codec ID/Info: UTF-8 Plain Text
Duration: 1 h 45 min
Bit rate: 1 b/s
Frame rate: 0.004 FPS
Count of elements: 23
Stream size: 1.06 KiB (0%)
Title: Forced
Language: Russian
Default: Yes
Forced: No

Text #2
ID: 7
Format: UTF-8
Codec ID: S_TEXT/UTF8
Codec ID/Info: UTF-8 Plain Text
Duration: 1 h 54 min
Bit rate: 116 b/s
Frame rate: 0.309 FPS
Count of elements: 2112
Stream size: 97.5 KiB (0%)
Title: Full [IVI]
Language: Russian
Default: No
Forced: No

Text #3
ID: 8
Format: UTF-8
Codec ID: S_TEXT/UTF8
Codec ID/Info: UTF-8 Plain Text
Duration: 1 h 54 min
Bit rate: 118 b/s
Frame rate: 0.276 FPS
Count of elements: 1889
Stream size: 98.8 KiB (0%)
Title: Full V.2
Language: Russian
Default: No
Forced: No

Text #4
ID: 9
Format: UTF-8
Codec ID: S_TEXT/UTF8
Codec ID/Info: UTF-8 Plain Text
Duration: 1 h 48 min
Bit rate: 85 b/s
Frame rate: 0.311 FPS
Count of elements: 2014
Stream size: 67.3 KiB (0%)
Title: SDH
Language: English
Default: No
Forced: No

Menu
00:00:00.000: en: Chapter 1
00:16:28.070: en: Chapter 2
00:29:39.361: en: Chapter 3
00:46:02.176: en: Chapter 4
01:01:14.838: en: Chapter 5
01:17:19.468: en: Chapter 6
01:34:37.046: en: Chapter 7
01:49:09.293: en: Chapter 8

Другие фильмы
У данной публикации пока нет комментариев.
Будь первым, оставь своё мнение в комментариях!
Информация
Посетители, находящиеся в группе Гости, не могут оставлять комментарии к данной публикации.
Самый популярный релиз недели
Донаты
Мы в соц. сетях / RSS

Лучшие релизы месяца
Лучшие SD недели
Лучшие 720p недели
Лучшие 1080p недели
Лучшие 4K недели
Вы недавно смотрели
Реклама
Последние комментарии
...

fataxdd

16 июля 2024 07:13

...

Rustik99

12 июля 2024 10:11

...

Rograr

6 июля 2024 19:56

...

fenix

2 июля 2024 07:45

...

Fidelrus

28 июня 2024 13:53

Реклама