+8

Я не киллер / Hit Man (2023) BDRip 720p от DoMiNo & селезень | D

Информация о фильме
Название: Я не киллер
Оригинальное название: Hit Man
Год выхода: 2023
Жанр: боевик, мелодрама, комедия, криминал
Режиссер: Ричард Линклейтер
В ролях: Глен Пауэлл, Адриа Архона, Ретта, Остин Амелио, Молли Бернард, Майк Маркофф, Бет Бартли, Рокси Ривера, Джулия Холт, Ивэн Холцман

О фильме:
Новый Орлеан. Гэри Джонсон — одинокий университетский преподаватель философии и психологии живёт обычной скучной жизнью с двумя кошками. Гэри хорошо разбирается в электронике и однажды начинает помогать полицейским в установке и настройке прослушивающей аппаратуры. Перед началом очередной операции выясняется, что копа, который должен выдавать себя за наёмного убийцу, на 4 месяца отстраняют от работы из-за скандала с применением неоправданного насилия. В итоге, чтобы добыть доказательства и арестовать будущего заказчика убийства, Гэри приходится самому сыграть киллера. Всё проходит успешно, преступник арестован, а Гэри на постоянной основе начинает участвовать в спецоперациях, притворяясь крутым специалистом по устранению. На новом задании судьба сводит Гэри с очаровательной Мэдисон, которая желает убить ненавистного мужа.

Страна: США
Студия: AGC Studios, Aggregate Films, BarnStorm Productions, Cinetic Media, Detour Filmproduction, Detour Pictures, Monarch Media, Netflix, ShivHans Pictures
Продолжительность: 01:55:15
Перевод: Дублированный | Мосфильм-Мастер
Субтитры: Русские (Forced, 2x Full), Английские

Файл
Формат: Matroska
Качество: BDRip 720p
Видео: 1280x536 at 23.976 fps, [email protected], ~5971 kbps
Аудио 1: AC3, 6 ch, ~384 kbps - | Русский | Я не киллер / Hit Man (2023) BDRip 720p от DoMiNo & селезень | D
Аудио 2: E-AC3, 6 ch, ~384 kbps - | Русский |
Аудио 3: AC3, 6 ch, ~640 kbps - | Английский |
Формат субтитров: softsub (SRT)

Авторизуйтесь для получения доступа к скачиванию

Нет аккаунта? Регистрация открыта и займёт меньше минуты

Вход Регистрация

x264 [info]: frame I: 1318 Avg QP: 16.38 size: 100346
x264 [info]: frame P: 29661 Avg QP: 17.75 size: 55080
x264 [info]: frame B: 134825 Avg QP: 19.93 size: 25187
x264 [info]: consecutive B-frames: 1,2% 0,8% 5,5% 6,3% 10,0% 55,2% 8,8% 1,1% 3,6% 1,6% 2,0% 0,9% 0,5%

General
Unique ID: 338475530518375065300595825690251358025 (0xFEA4041665F07FD8F6522F0F6E4BEF49)
Complete name: K: Hit.Man.2023.DUB.BDRip.720p.x264.seleZen.mkv
Format: Matroska
Format version: Version 4
File size: 5.94 GiB
Duration: 1 h 55 min
Overall bit rate: 7 382 kb/s
Frame rate: 23.976 FPS
Movie name: Hit.Man.2023.DUB.BDRip.720p.x264.seleZen
Encoded date: 10.07.2024 20:26:00 UTC
Writing application: mkvmerge v85.0 ('Shame For You') 64-bit
Writing library: libebml v1.4.5 + libmatroska v1.7.1
Cover: Yes
Attachments: cover.jpg / small_cover.jpg

Video
ID: 1
Format: AVC
Format/Info: Advanced Video Codec
Format profile: [email protected]
Format settings: CABAC / 12 Ref Frames
Format settings, CABAC: Yes
Format settings, Reference: 12 frames
Codec ID: V_MPEG4/ISO/AVC
Duration: 1 h 55 min
Bit rate: 5 971 kb/s
Width: 1 280 pixels
Height: 536 pixels
Display aspect ratio: 2.39:1
Frame rate mode: Constant
Frame rate: 23.976 (24000/1001) FPS
Color space: YUV
Chroma subsampling: 4:2:0
Bit depth: 8 bits
Scan type: Progressive
Bits/(Pixel*Frame): 0.363
Stream size: 4.81 GiB (81%)
Title: -=DoMiNo=-
Writing library: x264 core 164 r3191 -DoMiNo
Encoding settings: cabac=1 / ref=12 / deblock=1:-3:-2 / analyse=0×3:0×133 / me=umh / subme=10 / psy=1 / psy_rd=1.00:0.05 / mixed_ref=1 / me_range=32 / chroma_me=1 / trellis=2 / 8×8dct=1 / cqm=0 / deadzone=21,11 / fast_pskip=0 / chroma_qp_offset=-3 / threads=17 / lookahead_threads=4 / sliced_threads=0 / nr=0 / decimate=1 / interlaced=0 / bluray_compat=0 / constrained_intra=0 / bframes=12 / b_pyramid=2 / b_adapt=2 / b_bias=0 / direct=3 / weightb=1 / open_gop=0 / weightp=2 / keyint=240 / keyint_min=23 / scenecut=40 / intra_refresh=0 / rc_lookahead=60 / rc=crf / mbtree=0 / crf=18.0 / qcomp=0.60 / qpmin=0 / qpmax=69 / qpstep=4 / vbv_maxrate=50000 / vbv_bufsize=62500 / crf_max=0.0 / nal_hrd=none / filler=0 / ip_ratio=1.40 / pb_ratio=1.30 / aq=1:0.90
Language: English
Default: Yes
Forced: No
Color range: Limited
Color primaries: BT.709
Transfer characteristics: BT.709
Matrix coefficients: BT.709

Audio #1
ID: 2
Format: AC-3
Format/Info: Audio Coding 3
Commercial name: Dolby Digital
Codec ID: A_AC3
Duration: 1 h 55 min
Bit rate mode: Constant
Bit rate: 384 kb/s
Channel (s): 6 channels
Channel layout: L R C LFE Ls Rs
Sampling rate: 48.0 kHz
Frame rate: 31.250 FPS (1536 SPF)
Compression mode: Lossy
Stream size: 317 MiB (5%)
Title: Дублированный | Мосфильм-Мастер
Language: Russian
Service kind: Complete Main
Default: Yes
Forced: No
Dialog Normalization: -31 dB
cmixlev: -3.0 dB
surmixlev: -6 dB
dialnorm_Average: -31 dB
dialnorm_Minimum: -31 dB
dialnorm_Maximum: -31 dB

Audio #2
ID: 3
Format: E-AC-3
Format/Info: Enhanced AC-3
Commercial name: Dolby Digital Plus
Codec ID: A_EAC3
Duration: 1 h 55 min
Bit rate mode: Constant
Bit rate: 384 kb/s
Channel (s): 6 channels
Channel layout: L R C LFE Ls Rs
Sampling rate: 48.0 kHz
Frame rate: 31.250 FPS (1536 SPF)
Compression mode: Lossy
Stream size: 317 MiB (5%)
Title: Дублированный | Мосфильм-Мастер
Language: Russian
Service kind: Complete Main
Default: No
Forced: No
Dialog Normalization: -31 dB
dialnorm_Average: -31 dB
dialnorm_Minimum: -31 dB
dialnorm_Maximum: -31 dB

Audio #3
ID: 4
Format: AC-3
Format/Info: Audio Coding 3
Commercial name: Dolby Digital
Codec ID: A_AC3
Duration: 1 h 55 min
Bit rate mode: Constant
Bit rate: 640 kb/s
Channel (s): 6 channels
Channel layout: L R C LFE Ls Rs
Sampling rate: 48.0 kHz
Frame rate: 31.250 FPS (1536 SPF)
Compression mode: Lossy
Stream size: 528 MiB (9%)
Title: Original
Language: English
Service kind: Complete Main
Default: No
Forced: No
Dialog Normalization: -31 dB
compr: -0.28 dB
cmixlev: -3.0 dB
surmixlev: -3 dB
dmixmod: Lt/Rt
ltrtcmixlev: -3.0 dB
ltrtsurmixlev: -3.0 dB
lorocmixlev: -3.0 dB
lorosurmixlev: -3.0 dB
dialnorm_Average: -31 dB
dialnorm_Minimum: -31 dB
dialnorm_Maximum: -31 dB

Text #1
ID: 5
Format: UTF-8
Codec ID: S_TEXT/UTF8
Codec ID/Info: UTF-8 Plain Text
Duration: 1 h 45 min
Bit rate: 1 b/s
Frame rate: 0.004 FPS
Count of elements: 23
Stream size: 1.06 KiB (0%)
Title: Forced
Language: Russian
Default: Yes
Forced: No

Text #2
ID: 6
Format: UTF-8
Codec ID: S_TEXT/UTF8
Codec ID/Info: UTF-8 Plain Text
Duration: 1 h 54 min
Bit rate: 116 b/s
Frame rate: 0.309 FPS
Count of elements: 2112
Stream size: 97.5 KiB (0%)
Title: Full [IVI]
Language: Russian
Default: No
Forced: No

Text #3
ID: 7
Format: UTF-8
Codec ID: S_TEXT/UTF8
Codec ID/Info: UTF-8 Plain Text
Duration: 1 h 54 min
Bit rate: 118 b/s
Frame rate: 0.276 FPS
Count of elements: 1889
Stream size: 98.8 KiB (0%)
Title: Full V.2
Language: Russian
Default: No
Forced: No

Text #4
ID: 8
Format: UTF-8
Codec ID: S_TEXT/UTF8
Codec ID/Info: UTF-8 Plain Text
Duration: 1 h 48 min
Bit rate: 85 b/s
Frame rate: 0.311 FPS
Count of elements: 2014
Stream size: 67.3 KiB (0%)
Title: SDH
Language: English
Default: No
Forced: No

Menu
00:00:00.000: en: Chapter 1
00:16:28.070: en: Chapter 2
00:29:39.361: en: Chapter 3
00:46:02.176: en: Chapter 4
01:01:14.838: en: Chapter 5
01:17:19.468: en: Chapter 6
01:34:37.046: en: Chapter 7
01:49:09.293: en: Chapter 8

Другие фильмы
У данной публикации пока нет комментариев.
Будь первым, оставь своё мнение в комментариях!
Информация
Посетители, находящиеся в группе Гости, не могут оставлять комментарии к данной публикации.
Самый популярный релиз недели
Донаты
Мы в соц. сетях / RSS

Лучшие релизы месяца
Лучшие SD недели
Лучшие 720p недели
Лучшие 1080p недели
Лучшие 4K недели
Вы недавно смотрели
Реклама
Последние комментарии
...

fataxdd

16 июля 2024 07:13

...

Rustik99

12 июля 2024 10:11

...

Rograr

6 июля 2024 19:56

...

fenix

2 июля 2024 07:45

...

Fidelrus

28 июня 2024 13:53

Реклама