+7

Я не киллер / Hit Man (2023) BDRip от DoMiNo & селезень | D

Информация о фильме
Название: Я не киллер
Оригинальное название: Hit Man
Год выхода: 2023
Жанр: боевик, мелодрама, комедия, криминал
Режиссер: Ричард Линклейтер
В ролях: Глен Пауэлл, Адриа Архона, Ретта, Остин Амелио, Молли Бернард, Майк Маркофф, Бет Бартли, Рокси Ривера, Джулия Холт, Ивэн Холцман

О фильме:
Новый Орлеан. Гэри Джонсон — одинокий университетский преподаватель философии и психологии живёт обычной скучной жизнью с двумя кошками. Гэри хорошо разбирается в электронике и однажды начинает помогать полицейским в установке и настройке прослушивающей аппаратуры. Перед началом очередной операции выясняется, что копа, который должен выдавать себя за наёмного убийцу, на 4 месяца отстраняют от работы из-за скандала с применением неоправданного насилия. В итоге, чтобы добыть доказательства и арестовать будущего заказчика убийства, Гэри приходится самому сыграть киллера. Всё проходит успешно, преступник арестован, а Гэри на постоянной основе начинает участвовать в спецоперациях, притворяясь крутым специалистом по устранению. На новом задании судьба сводит Гэри с очаровательной Мэдисон, которая желает убить ненавистного мужа.

Страна: США
Студия: AGC Studios, Aggregate Films, BarnStorm Productions, Cinetic Media, Detour Filmproduction, Detour Pictures, Monarch Media, Netflix, ShivHans Pictures
Продолжительность: 01:55:15
Перевод: Дублированный | Мосфильм-Мастер
Субтитры: Русские (Forced — хардсаб)

Файл
Формат: AVI
Качество: BDRip
Исходник: Hit.Man.2023.1080p.BluRay.REMUX.AVC.TrueHD.5.1-dOwn
Видео: 720×304 at 23.976 fps, XviD 69, ~1420 kbps
Аудио: AC3, 6 ch, ~384 kbps — | Русский | Я не киллер / Hit Man (2023) BDRip от DoMiNo & селезень | D
Формат субтитров: хардсаб

Авторизуйтесь для получения доступа к скачиванию

Нет аккаунта? Регистрация открыта и займёт меньше минуты

Вход Регистрация

General
Complete name : U:Hit.Man.2023.DUB.BDRip.seleZen.avi
Format : AVI
Format/Info : Audio Video Interleave
Format settings : BitmapInfoHeader / WaveFormatEx
File size : 1.46 GiB
Duration : 1 h 55 min
Overall bit rate : 1 813 kb/s
Frame rate : 23.976 FPS
Movie name : Hit.Man.2023.DUB.BDRip.seleZen
Writing application : VirtualDubModRus 1.5.10.2 (build 2542/release)
Writing library : VirtualDubMod build 2542/release
Copyright : -=DoMiNo=-

Video
ID : 0
Format : MPEG-4 Visual
Format profile : Advanced Simple@L5
Format settings : BVOP1 / Custom Matrix
Format settings, BVOP : 1
Format settings, QPel : No
Format settings, GMC : No warppoints
Format settings, Matrix : Custom
Codec ID : XVID
Codec ID/Hint : XviD
Duration : 1 h 55 min
Bit rate : 1 420 kb/s
Width : 720 pixels
Height : 304 pixels
Display aspect ratio : 2.39:1
Frame rate : 23.976 (24000/1001) FPS
Color space : YUV
Chroma subsampling : 4:2:0
Bit depth : 8 bits
Scan type : Progressive
Compression mode : Lossy
Bits/(Pixel*Frame) : 0.271
Stream size : 1.14 GiB (78%)
Writing library : XviD 69

Audio
ID : 1
Format : AC-3
Format/Info : Audio Coding 3
Commercial name : Dolby Digital
Codec ID : 2000
Duration : 1 h 55 min
Bit rate mode : Constant
Bit rate : 384 kb/s
Channel(s) : 6 channels
Channel layout : L R C LFE Ls Rs
Sampling rate : 48.0 kHz
Frame rate : 31.250 FPS (1536 SPF)
Compression mode : Lossy
Stream size : 317 MiB (21%)
Alignment : Split across interleaves
Interleave, duration : 42 ms (1.00 video frame)
Interleave, preload duratio : 500 ms
Service kind : Complete Main
Dialog Normalization : -31 dB
cmixlev : -3.0 dB
surmixlev : -6 dB
dialnorm_Average : -31 dB
dialnorm_Minimum : -31 dB
dialnorm_Maximum : -31 dB

Другие фильмы
У данной публикации пока нет комментариев.
Будь первым, оставь своё мнение в комментариях!
Информация
Посетители, находящиеся в группе Гости, не могут оставлять комментарии к данной публикации.
Самый популярный релиз недели
Донаты
Мы в соц. сетях / RSS

Лучшие релизы месяца
Лучшие SD недели
Лучшие 720p недели
Лучшие 1080p недели
Лучшие 4K недели
Вы недавно смотрели
Реклама
Последние комментарии
...

fataxdd

16 июля 2024 07:13

...

Rustik99

12 июля 2024 10:11

...

Rograr

6 июля 2024 19:56

...

fenix

2 июля 2024 07:45

...

Fidelrus

28 июня 2024 13:53

Реклама