+3

Банды Лондона / Bermondsey Tales: Fall of the Roman Empire (2024) WEB-DL 1080p от селезень | D

Информация о фильме
Название: Банды Лондона
Оригинальное название: Bermondsey Tales: Fall of the Roman Empire
Год выхода: 2024
Жанр: драма, комедия, криминал
Режиссер: Майкл Хэд
В ролях: Джон Ханна, Фрэнк Харпер, Мэйси Смит, Алан Форд, Дэниэл О'Рейли, Чарли Клэпэм, Адам Дикон, Вэс Блэквуд, Дэвид Шааль, Гари Уэбстер

О фильме: Семья бандитов оказывается в эпицентре разборок, все усложняет полиция и конкуренты, жаждущие отжать все активы преступного клана. «Римляне» рискуют потерять все, что так долго и упорно строили не один десяток лет.

Страна: Великобритания
Студия: Harish Iyer
Продолжительность: 01:38:50
Перевод: Дублированный (KION)

Качество: WEB-DL 1080p
Видео: MPEG-4 AVC, 1920x1080, 6144 Kbit/s, 24.000 fps
Аудио: 48 kHz, AC3, 5.1, 640 Kbps | Дублированный (KION) | RUS |Банды Лондона / Bermondsey Tales: Fall of the Roman Empire (2024) WEB-DL 1080p от селезень | D
Субтитры: Отсутствуют

Банды Лондона / Bermondsey Tales: Fall of the Roman Empire (2024) WEB-DL 1080p от селезень | D

Авторизуйтесь для получения доступа к скачиванию

Нет аккаунта? Регистрация открыта и займёт меньше минуты

Вход Регистрация

General
Unique ID : 66527301994002223429936458458590062257 (0x320CB13AC43304C5CF7430E96D1FA6B1)
Complete name : H:\VideoH\Bermondsey.Tales.Fall.of.the.Roman.Empire.2024.WEB-DL.1080p.seleZen.mkv
Format : Matroska
Format version : Version 4
File size : 4.62 GiB
Duration : 1 h 38 min
Overall bit rate mode : Constant
Overall bit rate : 6 690 kb/s
Frame rate : 24.000 FPS
Movie name : Bermondsey Tales: Fall of the Roman Empire (2024) from seleZen
Encoded date : 2024-07-11 00:34:54 UTC
Writing application : mkvmerge v85.0 ('Shame For You') 64-bit
Writing library : libebml v1.4.5 + libmatroska v1.7.1

Video
ID : 1
Format : AVC
Format/Info : Advanced Video Codec
Format profile : Constrained Baseline@L4
Format settings : 2 Ref Frames
Format settings, CABAC : No
Format settings, Reference : 2 frames
Format settings, Slice coun : 7 slices per frame
Codec ID : V_MPEG4/ISO/AVC
Duration : 1 h 38 min
Bit rate mode : Constant
Bit rate : 6 144 kb/s
Width : 1 920 pixels
Height : 1 080 pixels
Display aspect ratio : 16:9
Frame rate mode : Constant
Frame rate : 24.000 FPS
Color space : YUV
Chroma subsampling : 4:2:0
Bit depth : 8 bits
Scan type : Progressive
Bits/(Pixel*Frame) : 0.123
Stream size : 4.18 GiB (90%)
Language : English
Default : Yes
Forced : No

Audio
ID : 2
Format : AC-3
Format/Info : Audio Coding 3
Commercial name : Dolby Digital
Codec ID : A_AC3
Duration : 1 h 38 min
Bit rate mode : Constant
Bit rate : 640 kb/s
Channel(s) : 6 channels
Channel layout : L R C LFE Ls Rs
Sampling rate : 48.0 kHz
Frame rate : 31.250 FPS (1536 SPF)
Compression mode : Lossy
Stream size : 452 MiB (10%)
Language : Russian
Service kind : Complete Main
Default : Yes
Forced : No
Dialog Normalization : -24 dB
compr : 0.53 dB
cmixlev : -3.0 dB
surmixlev : -3 dB
mixlevel : 285 dB
roomtyp : 3
ltrtcmixlev : -3.0 dB
ltrtsurmixlev : -3.0 dB
lorocmixlev : -3.0 dB
lorosurmixlev : -4.5 dB
dialnorm_Average : -24 dB
dialnorm_Minimum : -24 dB
dialnorm_Maximum : -24 dB

Другие фильмы
У данной публикации пока нет комментариев.
Будь первым, оставь своё мнение в комментариях!
Информация
Посетители, находящиеся в группе Гости, не могут оставлять комментарии к данной публикации.
Самый популярный релиз недели
Донаты
Мы в соц. сетях / RSS

Лучшие релизы месяца
Лучшие SD недели
Лучшие 720p недели
Лучшие 1080p недели
Лучшие 4K недели
Вы недавно смотрели
Реклама
Последние комментарии
...

fataxdd

16 июля 2024 07:13

...

Rustik99

12 июля 2024 10:11

...

Rograr

6 июля 2024 19:56

...

fenix

2 июля 2024 07:45

...

Fidelrus

28 июня 2024 13:53

Реклама