+6

Банды Лондона / Bermondsey Tales: Fall of the Roman Empire (2024) WEB-DLRip-AVC от DoMiNo & селезень | D | Локализованная версия

Информация о фильме
Название: Банды Лондона
Оригинальное название: Bermondsey Tales: Fall of the Roman Empire
Год выхода: 2024
Жанр: драма, комедия, криминал
Режиссер: Майкл Хэд
В ролях: Джон Ханна, Фрэнк Харпер, Мэйси Смит, Алан Форд, Дэниэл О’Рейли, Чарли Клэпэм, Адам Дикон, Вэс Блэквуд, Дэвид Шааль, Гари Уэбстер

О фильме:
Семья бандитов оказывается в эпицентре разборок, все усложняет полиция и конкуренты, жаждущие отжать все активы преступного клана. «Римляне» рискуют потерять все, что так долго и упорно строили не один десяток лет.

Страна: Великобритания
Студия: Harish Iyer
Продолжительность: 01:38:50
Перевод: Дублированный (KION)

Файл
Формат: Matroska
Качество: WEB-DLRip-AVC | Локализованная версия
Видео: 1024×512 at 24.000 fps, [email protected], ~1659 kbps
Аудио: AC3, 6 ch, ~448 kbps — | Русский | Банды Лондона / Bermondsey Tales: Fall of the Roman Empire (2024) WEB-DLRip-AVC от DoMiNo & селезень | D | Локализованная версия
Субтитры: Отсутствуют

Авторизуйтесь для получения доступа к скачиванию

Нет аккаунта? Регистрация открыта и займёт меньше минуты

Вход Регистрация

General
Unique ID: 599936183914088399750751403394033766 (0×738B2337C6C8111750EB458FC96866)
Complete name: U: Bermondsey.Tales.Fall.of.the.Roman.Empire.2024.DUB.WEB-DLRip.x264.seleZen.mkv
Format: Matroska
Format version: Version 4
File size: 1.45 GiB
Duration: 1 h 38 min
Overall bit rate: 2 106 kb/s
Frame rate: 24.000 FPS
Movie name: Bermondsey.Tales.Fall.of.the.Roman.Empire.2024.DUB.WEB-DLRip.x264.seleZen
Encoded date: 11.07.2024 09:13:19 UTC
Writing application: mkvmerge v85.0 ('Shame For You') 64-bit
Writing library: libebml v1.4.5 + libmatroska v1.7.1
Cover: Yes
Attachments: cover.jpg / small_cover.jpg

Video
ID: 1
Format: AVC
Format/Info: Advanced Video Codec
Format profile: [email protected]
Format settings: CABAC / 10 Ref Frames
Format settings, CABAC: Yes
Format settings, Reference: 10 frames
Codec ID: V_MPEG4/ISO/AVC
Duration: 1 h 38 min
Bit rate: 1 659 kb/s
Width: 1 024 pixels
Height: 512 pixels
Display aspect ratio: 2.000
Frame rate mode: Constant
Frame rate: 24.000 FPS
Color space: YUV
Chroma subsampling: 4:2:0
Bit depth: 8 bits
Scan type: Progressive
Bits/(Pixel*Frame): 0.132
Stream size: 1.14 GiB (79%)
Title: -=DoMiNo=-
Writing library: x264 core 164 r3191 -DoMiNo
Encoding settings: cabac=1 / ref=10 / deblock=1:-3:-2 / analyse=0×3:0×133 / me=umh / subme=10 / psy=1 / psy_rd=1.00:0.05 / mixed_ref=1 / me_range=32 / chroma_me=1 / trellis=2 / 8×8dct=1 / cqm=0 / deadzone=21,11 / fast_pskip=0 / chroma_qp_offset=-3 / threads=16 / lookahead_threads=4 / sliced_threads=0 / nr=0 / decimate=1 / interlaced=0 / bluray_compat=0 / constrained_intra=0 / bframes=10 / b_pyramid=2 / b_adapt=2 / b_bias=0 / direct=3 / weightb=1 / open_gop=0 / weightp=2 / keyint=240 / keyint_min=24 / scenecut=40 / intra_refresh=0 / rc_lookahead=60 / rc=2pass / mbtree=0 / bitrate=1659 / ratetol=1.0 / qcomp=0.60 / qpmin=0 / qpmax=69 / qpstep=4 / cplxblur=20.0 / qblur=0.5 / vbv_maxrate=50000 / vbv_bufsize=62500 / nal_hrd=none / filler=0 / ip_ratio=1.40 / pb_ratio=1.30 / aq=1:0.90
Language: English
Default: Yes
Forced: No
Color range: Limited
Color primaries: BT.709
Transfer characteristics: BT.709
Matrix coefficients: BT.709

Audio
ID: 2
Format: AC-3
Format/Info: Audio Coding 3
Commercial name: Dolby Digital
Codec ID: A_AC3
Duration: 1 h 38 min
Bit rate mode: Constant
Bit rate: 448 kb/s
Channel (s): 6 channels
Channel layout: L R C LFE Ls Rs
Sampling rate: 48.0 kHz
Frame rate: 31.250 FPS (1536 SPF)
Compression mode: Lossy
Stream size: 317 MiB (21%)
Title: Дублированный (KION)
Language: Russian
Service kind: Complete Main
Default: Yes
Forced: No
Dialog Normalization: -24 dB
compr: -0.28 dB
cmixlev: -3.0 dB
surmixlev: -3 dB
mixlevel: 85 dB
roomtyp: 3
ltrtcmixlev: -3.0 dB
ltrtsurmixlev: -3.0 dB
lorocmixlev: -3.0 dB
lorosurmixlev: -4.5 dB
dialnorm_Average: -24 dB
dialnorm_Minimum: -24 dB
dialnorm_Maximum: -24 dB

Menu
00:00:00.000: en: Chapter 01
00:05:50.000: en: Chapter 02
00:11:40.000: en: Chapter 03
00:17:30.000: en: Chapter 04
00:23:20.000: en: Chapter 05
00:29:10.000: en: Chapter 06
00:35:00.000: en: Chapter 07
00:40:50.000: en: Chapter 08
00:46:40.000: en: Chapter 09
00:52:30.000: en: Chapter 10
00:58:20.000: en: Chapter 11
01:04:10.000: en: Chapter 12
01:10:00.000: en: Chapter 13
01:15:50.000: en: Chapter 14
01:21:40.000: en: Chapter 15
01:27:30.000: en: Chapter 16
01:33:20.000: en: Chapter 17

Другие фильмы
У данной публикации пока нет комментариев.
Будь первым, оставь своё мнение в комментариях!
Информация
Посетители, находящиеся в группе Гости, не могут оставлять комментарии к данной публикации.
Самый популярный релиз недели
Донаты
Мы в соц. сетях / RSS

Лучшие релизы месяца
Лучшие SD недели
Лучшие 720p недели
Лучшие 1080p недели
Лучшие 4K недели
Вы недавно смотрели
Реклама
Последние комментарии
...

fataxdd

16 июля 2024 07:13

...

Rustik99

12 июля 2024 10:11

...

Rograr

6 июля 2024 19:56

...

fenix

2 июля 2024 07:45

...

Fidelrus

28 июня 2024 13:53

Реклама