+18

Дом Дракона / House of the Dragon [02x01-04 из 08] (2024) WEB-DLRip-AVC от DoMiNo & селезень | D, P

Информация о фильме
Название: Дом Дракона
Оригинальное название: House of the Dragon
Год выхода: 2024
Жанр: фэнтези, боевик, драма, мелодрама
Режиссер: Клер Килнер, Гита Васант Пател, Мигель Сапочник
В ролях: Пэдди Консидайн, Мэтт Смит, Эмма Д’Арси, Рис Иванс, Стив Туссэн, Ив Бэст, Соноя Мидзуно, Фабьен Франкель, Оливия Кук, Эмили Кэри и другие.

О фильме:
После смерти короля Визериса династия Таргариенов начинает бескомпромиссную борьбу за Железный трон. Предводительницей «черной» ветви становится принцесса Рейнира, а на стороне «зеленой» оказывается ее лучшая подруга и дочь десницы короля Алисента. В битве за престол соперницы заручаются поддержкой неожиданных союзников, плетут интриги — и используют разрушительную мощь драконов.

Страна: США
Студия: Good Banana, Home Box Office (HBO)
Продолжительность: 3x ~ 01:00:00
Перевод 1: Профессиональный (дублированный) | Кравец-Рекордз
Перевод 2: Профессиональный многоголосый (закадровый) | HDRezka Studio
Перевод 3: Профессиональный многоголосый (закадровый) | LostFilm
Субтитры: Русские (Forced, 3x Full), Английские

Файл
Формат: Matroska
Качество: WEB-DLRip-AVC
Видео: 1024×512 at 23.976 fps, [email protected], ~1514 kbps
Аудио 1: AC3, 6 ch, ~384 kbps — | Русский | Дом Дракона / House of the Dragon [02x01-04 из 08] (2024) WEB-DLRip-AVC от DoMiNo & селезень | D, P | Кравец-Рекордз
Аудио 2: AAC, 2 ch, ~128 kbps — | Русский | | HDRezka Studio
Аудио 3: AAC, 2 ch, ~128 kbps — | Русский | | LostFilm
Формат субтитров: softsub (SRT)

Авторизуйтесь для получения доступа к скачиванию

Нет аккаунта? Регистрация открыта и займёт меньше минуты

Вход Регистрация

*** Дебандинг, зерно.

x264 [info]: frame I: 573 Avg QP: 17.01 size: 53397
x264 [info]: frame P: 15398 Avg QP: 18.55 size: 19866
x264 [info]: frame B: 67549 Avg QP: 20.86 size: 4779

General
Unique ID: 205809753881459310364852056588253818499 (0×9AD5844C00FD60A0EE68F21BCA566E83)
Complete name: E: vrmHouse.of.the.Dragon.S02.2024.WEB-DLRip.x264.seleZenHouse.of.the.Dragon.S02E01.WEB-DLRip.x264.seleZen.mkv
Format: Matroska
Format version: Version 4
File size: 894 MiB
Duration: 58 min 7 s
Overall bit rate: 2 151 kb/s
Frame rate: 23.976 FPS
Movie name: House.of.the.Dragon.S02E01.WEB-DLRip.x264.seleZen
Encoded date: 24.06.2024 11:52:33 UTC
Writing application: mkvmerge v85.0 ('Shame For You') 64-bit
Writing library: libebml v1.4.5 + libmatroska v1.7.1
Cover: Yes
Attachments: cover.jpg / small_cover.jpg

Video
ID: 1
Format: AVC
Format/Info: Advanced Video Codec
Format profile: [email protected]
Format settings: CABAC / 10 Ref Frames
Format settings, CABAC: Yes
Format settings, Reference: 10 frames
Codec ID: V_MPEG4/ISO/AVC
Duration: 58 min 3 s
Bit rate: 1 514 kb/s
Width: 1 024 pixels
Height: 512 pixels
Display aspect ratio: 2.000
Frame rate mode: Constant
Frame rate: 23.976 (24000/1001) FPS
Color space: YUV
Chroma subsampling: 4:2:0
Bit depth: 8 bits
Scan type: Progressive
Bits/(Pixel*Frame): 0.120
Stream size: 629 MiB (70%)
Title: -=DoMiNo=-
Writing library: x264 core 164 r3191 -DoMiNo
Encoding settings: cabac=1 / ref=10 / deblock=1:-2:-1 / analyse=0×3:0×133 / me=umh / subme=10 / psy=1 / psy_rd=1.00:0.15 / mixed_ref=1 / me_range=32 / chroma_me=1 / trellis=2 / 8×8dct=1 / cqm=0 / deadzone=21,11 / fast_pskip=0 / chroma_qp_offset=-3 / threads=16 / lookahead_threads=4 / sliced_threads=0 / nr=0 / decimate=1 / interlaced=0 / bluray_compat=0 / constrained_intra=0 / bframes=14 / b_pyramid=2 / b_adapt=2 / b_bias=0 / direct=3 / weightb=1 / open_gop=0 / weightp=2 / keyint=240 / keyint_min=23 / scenecut=40 / intra_refresh=0 / rc_lookahead=60 / rc=crf / mbtree=0 / crf=20.0 / qcomp=0.60 / qpmin=0 / qpmax=69 / qpstep=4 / vbv_maxrate=50000 / vbv_bufsize=62500 / crf_max=0.0 / nal_hrd=none / filler=0 / ip_ratio=1.40 / pb_ratio=1.30 / aq=1:0.90
Language: English
Default: Yes
Forced: No
Color range: Limited
Color primaries: BT.709
Transfer characteristics: BT.709
Matrix coefficients: BT.709

Audio #1
ID: 2
Format: AC-3
Format/Info: Audio Coding 3
Commercial name: Dolby Digital
Codec ID: A_AC3
Duration: 58 min 3 s
Bit rate mode: Constant
Bit rate: 384 kb/s
Channel (s): 6 channels
Channel layout: L R C LFE Ls Rs
Sampling rate: 48.0 kHz
Frame rate: 31.250 FPS (1536 SPF)
Compression mode: Lossy
Stream size: 159 MiB (18%)
Title: Dub -Кравец-Рекордз
Language: Russian
Service kind: Complete Main
Default: Yes
Forced: No
Dialog Normalization: -25 dB
compr: -0.28 dB
cmixlev: -3.0 dB
surmixlev: -3 dB
dmixmod: Lo/Ro
ltrtcmixlev: -3.0 dB
ltrtsurmixlev: -3.0 dB
lorocmixlev: -3.0 dB
lorosurmixlev: -3.0 dB
dialnorm_Average: -25 dB
dialnorm_Minimum: -25 dB
dialnorm_Maximum: -25 dB

Audio #2
ID: 3
Format: AAC LC
Format/Info: Advanced Audio Codec Low Complexity
Codec ID: A_AAC-2
Duration: 58 min 3 s
Bit rate: 125 kb/s
Channel (s): 2 channels
Channel layout: L R
Sampling rate: 48.0 kHz
Frame rate: 46.875 FPS (1024 SPF)
Compression mode: Lossy
Stream size: 52.1 MiB (6%)
Title: HDRezka
Language: Russian
Default: No
Forced: No

Audio #3
ID: 4
Format: AAC LC
Format/Info: Advanced Audio Codec Low Complexity
Codec ID: A_AAC-2
Duration: 58 min 4 s
Bit rate: 125 kb/s
Channel (s): 2 channels
Channel layout: L R
Sampling rate: 48.0 kHz
Frame rate: 46.875 FPS (1024 SPF)
Compression mode: Lossy
Stream size: 52.1 MiB (6%)
Title: LostFilm
Language: Russian
Default: No
Forced: No

Text #1
ID: 5
Format: UTF-8
Codec ID: S_TEXT/UTF8
Codec ID/Info: UTF-8 Plain Text
Duration: 52 min 10 s
Bit rate: 0 b/s
Frame rate: 0.002 FPS
Count of elements: 5
Stream size: 259 Bytes (0%)
Title: Forced
Language: Russian
Default: No
Forced: Yes

Text #2
ID: 6
Format: UTF-8
Codec ID: S_TEXT/UTF8
Codec ID/Info: UTF-8 Plain Text
Duration: 54 min 12 s
Bit rate: 77 b/s
Frame rate: 0.159 FPS
Count of elements: 517
Stream size: 30.8 KiB (0%)
Title: Amedia
Language: Russian
Default: No
Forced: No

Text #3
ID: 7
Format: UTF-8
Codec ID: S_TEXT/UTF8
Codec ID/Info: UTF-8 Plain Text
Duration: 54 min 54 s
Bit rate: 81 b/s
Frame rate: 0.177 FPS
Count of elements: 582
Stream size: 32.9 KiB (0%)
Title: 7kingdoms
Language: Russian
Default: No
Forced: No

Text #4
ID: 8
Format: UTF-8
Codec ID: S_TEXT/UTF8
Codec ID/Info: UTF-8 Plain Text
Duration: 54 min 54 s
Bit rate: 76 b/s
Frame rate: 0.195 FPS
Count of elements: 642
Stream size: 30.9 KiB (0%)
Title: NewComers
Language: Russian
Default: No
Forced: No

Text #5
ID: 9
Format: UTF-8
Codec ID: S_TEXT/UTF8
Codec ID/Info: UTF-8 Plain Text
Duration: 54 min 12 s
Bit rate: 53 b/s
Frame rate: 0.198 FPS
Count of elements: 645
Stream size: 21.2 KiB (0%)
Language: English (US)
Default: No
Forced: No

Text #6
ID: 10
Format: UTF-8
Codec ID: S_TEXT/UTF8
Codec ID/Info: UTF-8 Plain Text
Duration: 58 min 1 s
Bit rate: 56 b/s
Frame rate: 0.229 FPS
Count of elements: 798
Stream size: 24.0 KiB (0%)
Title: SDH
Language: English (US)
Default: No
Forced: No

Menu
00:00:00.200: en: Scene 01
00:03:58.204: en: Intro
00:05:43.101: en: Scene 02

Другие фильмы
У данной публикации пока нет комментариев.
Будь первым, оставь своё мнение в комментариях!
Информация
Посетители, находящиеся в группе Гости, не могут оставлять комментарии к данной публикации.
Самый популярный релиз недели
Донаты
Мы в соц. сетях / RSS

Лучшие релизы месяца
Лучшие SD недели
Лучшие 720p недели
Лучшие 1080p недели
Лучшие 4K недели
Вы недавно смотрели
Реклама
Последние комментарии
...

fataxdd

16 июля 2024 07:13

...

Rustik99

12 июля 2024 10:11

...

Rograr

6 июля 2024 19:56

...

fenix

2 июля 2024 07:45

...

Fidelrus

28 июня 2024 13:53

Реклама