+7

Контрабандистки / Milsu / Smugglers (2023) WEB-DLRip 720p от DoMiNo & селезень | P

Информация о фильме
Название: Контрабандистки
Оригинальное название: Milsu / Smugglers
Год выпуска: 2023
Жанр: Боевик, криминал
Режиссер: Рю Сын-ван / Ryoo Seung-wan
В ролях: Ким Хе-су, Ём Джон-а, Чо Ин-сон, Ко Мин-щи, Пак Чон-мин, Ким Джон-су, Ким Джэ-хва, Пак Кён-хе, Ли Джин-хи, Ли До-гун, Щим Со-ён, Квак Чин-сок, Юн Гён-хо, Ли Сон-хи, Брайан М. ван Хисе

О фильме:
События фильма разворачиваются в 1970-х годах в небольшой деревне на берегу моря. Здесь живут женщины-хэне, которые зарабатывают на жизнь тем, что собирают морепродукты, погружаясь под воду без специального снаряжения. Но однажды рядом с деревней начинают строить завод, из-за чего героини теряют свой способ заработка. Женщины навынуждены заняться контрабандным бизнесом, который постепенно разрушает мирную жизнь всей деревни. «Контрабандистки» (2023) — южнокорейский криминальный боевик о противостоянии деревенских жителей и крупного завода, который уничтожает местный промысел.

Выпущено: Южная Корея / Next Entertainment World, Filmmaker R&K
Продолжительность: 02:09:08
Перевод: Профессиональный (многоголосый, закадровый) | Jaskier
Субтитры: Английские

Файл
Формат: Matroska
Качество: WEB-DLRip 720p
Видео: 1280×534 at 24.000 fps, [email protected], ~2676 kbps
Аудио: AC3, 6 ch, ~384 kbps — | Русский | Контрабандистки / Milsu / Smugglers (2023) WEB-DLRip 720p от DoMiNo & селезень | P
Формат субтитров: softsub (SRT)

Авторизуйтесь для получения доступа к скачиванию

Нет аккаунта? Регистрация открыта и займёт меньше минуты

Вход Регистрация

General
Unique ID: 105951416749842836172014827925076570271 (0×4FB580286D7C1D20E3502CEF22A1F09F)
Complete name: R: Smugglers.2023.AMZN.WEB-DLRip.x264.seleZen.mkv
Format: Matroska
Format version: Version 4
File size: 2.76 GiB
Duration: 2 h 9 min
Overall bit rate: 3 062 kb/s
Frame rate: 24.000 FPS
Movie name: Smugglers.2023.AMZN.WEB-DLRip.x264.seleZen
Encoded date: 06.12.2023 14:10:59 UTC
Writing application: mkvmerge v81.0 ('Milliontown') 64-bit
Writing library: libebml v1.4.4 + libmatroska v1.7.1
Cover: Yes
Attachments: cover.jpg / small_cover.jpg

Video
ID: 1
Format: AVC
Format/Info: Advanced Video Codec
Format profile: [email protected]
Format settings: CABAC / 5 Ref Frames
Format settings, CABAC: Yes
Format settings, Reference: 5 frames
Codec ID: V_MPEG4/ISO/AVC
Duration: 2 h 9 min
Bit rate: 2 676 kb/s
Width: 1 280 pixels
Height: 534 pixels
Display aspect ratio: 2.40:1
Frame rate mode: Constant
Frame rate: 24.000 FPS
Color space: YUV
Chroma subsampling: 4:2:0
Bit depth: 8 bits
Scan type: Progressive
Bits/(Pixel*Frame): 0.163
Stream size: 2.41 GiB (87%)
Title: -=DoMiNo=-
Writing library: x264 core 164 r3172 -DoMiNo
Encoding settings: cabac=1 / ref=5 / deblock=1:-1:-1 / analyse=0×3:0×133 / me=umh / subme=10 / psy=1 / psy_rd=1.01:0.02 / mixed_ref=1 / me_range=32 / chroma_me=1 / trellis=2 / 8×8dct=1 / cqm=0 / deadzone=21,11 / fast_pskip=0 / chroma_qp_offset=-3 / threads=17 / lookahead_threads=4 / sliced_threads=0 / nr=0 / decimate=1 / interlaced=0 / bluray_compat=0 / constrained_intra=0 / bframes=10 / b_pyramid=2 / b_adapt=2 / b_bias=0 / direct=3 / weightb=1 / open_gop=0 / weightp=2 / keyint=250 / keyint_min=24 / scenecut=40 / intra_refresh=0 / rc_lookahead=60 / rc=crf / mbtree=0 / crf=20.0 / qcomp=0.60 / qpmin=0 / qpmax=69 / qpstep=4 / vbv_maxrate=50000 / vbv_bufsize=62500 / crf_max=0.0 / nal_hrd=none / filler=0 / ip_ratio=1.35 / pb_ratio=1.30 / aq=3:0.90
Language: English
Default: Yes
Forced: No

Audio
ID: 2
Format: AC-3
Format/Info: Audio Coding 3
Commercial name: Dolby Digital
Codec ID: A_AC3
Duration: 2 h 9 min
Bit rate mode: Constant
Bit rate: 384 kb/s
Channel (s): 6 channels
Channel layout: L R C LFE Ls Rs
Sampling rate: 48.0 kHz
Frame rate: 31.250 FPS (1536 SPF)
Compression mode: Lossy
Stream size: 355 MiB (13%)
Title: Jaskier
Language: Russian
Service kind: Complete Main
Default: Yes
Forced: No

Text
ID: 3
Format: UTF-8
Codec ID: S_TEXT/UTF8
Codec ID/Info: UTF-8 Plain Text
Duration: 2 h 3 min
Bit rate: 44 b/s
Frame rate: 0.183 FPS
Count of elements: 1361
Stream size: 40.3 KiB (0%)
Title: SDH
Language: English
Default: No
Forced: No

Menu
00:00:00.000: en: Глава 01
00:05:50.000: en: Глава 02
00:11:40.000: en: Глава 03
00:17:30.000: en: Глава 04
00:23:20.000: en: Глава 05
00:29:10.000: en: Глава 06
00:35:00.000: en: Глава 07
00:40:50.000: en: Глава 08
00:46:40.000: en: Глава 09
00:52:30.000: en: Глава 10
00:58:20.000: en: Глава 11
01:04:10.000: en: Глава 12
01:10:00.000: en: Глава 13
01:15:50.000: en: Глава 14
01:21:40.000: en: Глава 15
01:27:30.000: en: Глава 16
01:33:20.000: en: Глава 17
01:39:10.000: en: Глава 18
01:45:00.000: en: Глава 19
01:50:50.000: en: Глава 20
01:56:40.000: en: Глава 21
02:02:30.000: en: Глава 22
02:08:20.000: en: Глава 23

Другие фильмы
У данной публикации пока нет комментариев.
Будь первым, оставь своё мнение в комментариях!
Информация
Посетители, находящиеся в группе Гости, не могут оставлять комментарии к данной публикации.
Самый популярный релиз недели
Донаты
Мы в соц. сетях / RSS

Лучшие релизы месяца
Лучшие SD недели
Лучшие 720p недели
Лучшие 1080p недели
Лучшие 4K недели
Вы недавно смотрели
Реклама
Последние комментарии
...

zik77

2 марта 2024 07:26

...

korelov

23 февраля 2024 14:35

...

Desol

21 февраля 2024 00:28

...

diabloq

20 февраля 2024 14:17

...

slightlymad

17 февраля 2024 21:01

Реклама